  0
SECTION
  2
HEADER
  9
$ACADVER
  1
AC1015
  9
$ACADMAINTVER
 70
    20
  9
$DWGCODEPAGE
  3
ANSI_1252
  9
$INSBASE
 10
0.0
 20
0.0
 30
0.0
  9
$EXTMIN
 10
-3.0
 20
-2.437500000000012
 30
-0.0000000000000007
  9
$EXTMAX
 10
21.41356861619875
 20
2.437500000000013
 30
38.21148943270226
  9
$LIMMIN
 10
0.0
 20
0.0
  9
$LIMMAX
 10
12.0
 20
9.0
  9
$ORTHOMODE
 70
     0
  9
$REGENMODE
 70
     1
  9
$FILLMODE
 70
     1
  9
$QTEXTMODE
 70
     0
  9
$MIRRTEXT
 70
     1
  9
$LTSCALE
 40
1.0
  9
$ATTMODE
 70
     1
  9
$TEXTSIZE
 40
0.2
  9
$TRACEWID
 40
0.05
  9
$TEXTSTYLE
  7
Standard
  9
$CLAYER
  8
0
  9
$CELTYPE
  6
ByLayer
  9
$CECOLOR
 62
   256
  9
$CELTSCALE
 40
1.0
  9
$DISPSILH
 70
     0
  9
$DIMSCALE
 40
3.0
  9
$DIMASZ
 40
0.2
  9
$DIMEXO
 40
0.1
  9
$DIMDLI
 40
0.38
  9
$DIMRND
 40
0.0
  9
$DIMDLE
 40
0.0
  9
$DIMEXE
 40
0.18
  9
$DIMTP
 40
0.0
  9
$DIMTM
 40
0.0
  9
$DIMTXT
 40
0.2
  9
$DIMCEN
 40
0.09
  9
$DIMTSZ
 40
0.0
  9
$DIMTOL
 70
     0
  9
$DIMLIM
 70
     0
  9
$DIMTIH
 70
     1
  9
$DIMTOH
 70
     1
  9
$DIMSE1
 70
     0
  9
$DIMSE2
 70
     0
  9
$DIMTAD
 70
     0
  9
$DIMZIN
 70
     0
  9
$DIMBLK
  1
ArchTick
  9
$DIMASO
 70
     1
  9
$DIMSHO
 70
     1
  9
$DIMPOST
  1
"
  9
$DIMAPOST
  1

  9
$DIMALT
 70
     0
  9
$DIMALTD
 70
     2
  9
$DIMALTF
 40
25.4
  9
$DIMLFAC
 40
1.0
  9
$DIMTOFL
 70
     0
  9
$DIMTVP
 40
0.0
  9
$DIMTIX
 70
     0
  9
$DIMSOXD
 70
     0
  9
$DIMSAH
 70
     0
  9
$DIMBLK1
  1

  9
$DIMBLK2
  1

  9
$DIMSTYLE
  2
OWP Standard
  9
$DIMCLRD
 70
     0
  9
$DIMCLRE
 70
     0
  9
$DIMCLRT
 70
     0
  9
$DIMTFAC
 40
1.0
  9
$DIMGAP
 40
0.09
  9
$DIMJUST
 70
     0
  9
$DIMSD1
 70
     0
  9
$DIMSD2
 70
     0
  9
$DIMTOLJ
 70
     1
  9
$DIMTZIN
 70
     0
  9
$DIMALTZ
 70
     0
  9
$DIMALTTZ
 70
     0
  9
$DIMUPT
 70
     0
  9
$DIMDEC
 70
     4
  9
$DIMTDEC
 70
     4
  9
$DIMALTU
 70
     2
  9
$DIMALTTD
 70
     2
  9
$DIMTXSTY
  7
Standard
  9
$DIMAUNIT
 70
     0
  9
$DIMADEC
 70
     0
  9
$DIMALTRND
 40
0.0
  9
$DIMAZIN
 70
     0
  9
$DIMDSEP
 70
    46
  9
$DIMATFIT
 70
     3
  9
$DIMFRAC
 70
     0
  9
$DIMLDRBLK
  1

  9
$DIMLUNIT
 70
     5
  9
$DIMLWD
 70
    -2
  9
$DIMLWE
 70
    -2
  9
$DIMTMOVE
 70
     0
  9
$LUNITS
 70
     2
  9
$LUPREC
 70
     4
  9
$SKETCHINC
 40
0.1
  9
$FILLETRAD
 40
0.0
  9
$AUNITS
 70
     0
  9
$AUPREC
 70
     0
  9
$MENU
  1
.
  9
$ELEVATION
 40
0.0
  9
$PELEVATION
 40
0.0
  9
$THICKNESS
 40
0.0
  9
$LIMCHECK
 70
     0
  9
$CHAMFERA
 40
0.5
  9
$CHAMFERB
 40
0.5
  9
$CHAMFERC
 40
1.0
  9
$CHAMFERD
 40
0.0
  9
$SKPOLY
 70
     0
  9
$TDCREATE
 40
2456063.413304375
  9
$TDUCREATE
 40
2456063.579971042
  9
$TDUPDATE
 40
2456063.422193797
  9
$TDUUPDATE
 40
2456063.588860463
  9
$TDINDWG
 40
0.0088900000
  9
$TDUSRTIMER
 40
0.0088899074
  9
$USRTIMER
 70
     1
  9
$ANGBASE
 50
0.0
  9
$ANGDIR
 70
     0
  9
$PDMODE
 70
     0
  9
$PDSIZE
 40
0.0
  9
$PLINEWID
 40
0.0
  9
$SPLFRAME
 70
     0
  9
$SPLINETYPE
 70
     6
  9
$SPLINESEGS
 70
     8
  9
$HANDSEED
  5
623
  9
$SURFTAB1
 70
     6
  9
$SURFTAB2
 70
     6
  9
$SURFTYPE
 70
     6
  9
$SURFU
 70
     6
  9
$SURFV
 70
     6
  9
$UCSBASE
  2

  9
$UCSNAME
  2

  9
$UCSORG
 10
0.0
 20
0.0
 30
0.0
  9
$UCSXDIR
 10
1.0
 20
0.0
 30
0.0
  9
$UCSYDIR
 10
0.0
 20
0.0
 30
1.0
  9
$UCSORTHOREF
  2

  9
$UCSORTHOVIEW
 70
     3
  9
$UCSORGTOP
 10
0.0
 20
0.0
 30
0.0
  9
$UCSORGBOTTOM
 10
0.0
 20
0.0
 30
0.0
  9
$UCSORGLEFT
 10
0.0
 20
0.0
 30
0.0
  9
$UCSORGRIGHT
 10
0.0
 20
0.0
 30
0.0
  9
$UCSORGFRONT
 10
0.0
 20
0.0
 30
0.0
  9
$UCSORGBACK
 10
0.0
 20
0.0
 30
0.0
  9
$PUCSBASE
  2

  9
$PUCSNAME
  2

  9
$PUCSORG
 10
0.0
 20
0.0
 30
0.0
  9
$PUCSXDIR
 10
1.0
 20
0.0
 30
0.0
  9
$PUCSYDIR
 10
0.0
 20
1.0
 30
0.0
  9
$PUCSORTHOREF
  2

  9
$PUCSORTHOVIEW
 70
     0
  9
$PUCSORGTOP
 10
0.0
 20
0.0
 30
0.0
  9
$PUCSORGBOTTOM
 10
0.0
 20
0.0
 30
0.0
  9
$PUCSORGLEFT
 10
0.0
 20
0.0
 30
0.0
  9
$PUCSORGRIGHT
 10
0.0
 20
0.0
 30
0.0
  9
$PUCSORGFRONT
 10
0.0
 20
0.0
 30
0.0
  9
$PUCSORGBACK
 10
0.0
 20
0.0
 30
0.0
  9
$USERI1
 70
     0
  9
$USERI2
 70
     0
  9
$USERI3
 70
     0
  9
$USERI4
 70
     0
  9
$USERI5
 70
     0
  9
$USERR1
 40
0.0
  9
$USERR2
 40
0.0
  9
$USERR3
 40
0.0
  9
$USERR4
 40
0.0
  9
$USERR5
 40
0.0
  9
$WORLDVIEW
 70
     1
  9
$SHADEDGE
 70
     3
  9
$SHADEDIF
 70
    70
  9
$TILEMODE
 70
     1
  9
$MAXACTVP
 70
    64
  9
$PINSBASE
 10
0.0
 20
0.0
 30
0.0
  9
$PLIMCHECK
 70
     0
  9
$PEXTMIN
 10
1.000000000000000E+20
 20
1.000000000000000E+20
 30
1.000000000000000E+20
  9
$PEXTMAX
 10
-1.000000000000000E+20
 20
-1.000000000000000E+20
 30
-1.000000000000000E+20
  9
$PLIMMIN
 10
0.0
 20
0.0
  9
$PLIMMAX
 10
12.0
 20
9.0
  9
$UNITMODE
 70
     0
  9
$VISRETAIN
 70
     1
  9
$PLINEGEN
 70
     0
  9
$PSLTSCALE
 70
     1
  9
$TREEDEPTH
 70
  3020
  9
$CMLSTYLE
  2
Standard
  9
$CMLJUST
 70
     0
  9
$CMLSCALE
 40
1.0
  9
$PROXYGRAPHICS
 70
     1
  9
$MEASUREMENT
 70
     0
  9
$CELWEIGHT
370
    -1
  9
$ENDCAPS
280
     0
  9
$JOINSTYLE
280
     0
  9
$LWDISPLAY
290
     0
  9
$INSUNITS
 70
     1
  9
$HYPERLINKBASE
  1

  9
$STYLESHEET
  1

  9
$XEDIT
290
     1
  9
$CEPSNTYPE
380
     0
  9
$PSTYLEMODE
290
     1
  9
$FINGERPRINTGUID
  2
{520A6660-226B-48DC-B5DF-E2E01088CD88}
  9
$VERSIONGUID
  2
{EFF6E7A8-DCC1-4999-96E3-6A9CDD38BE2D}
  9
$EXTNAMES
290
     1
  9
$PSVPSCALE
 40
0.0
  9
$OLESTARTUP
290
     0
  0
ENDSEC
  0
SECTION
  2
CLASSES
  0
CLASS
  1
ACDBDICTIONARYWDFLT
  2
AcDbDictionaryWithDefault
  3
ObjectDBX Classes
 90
        0
280
     0
281
     0
  0
CLASS
  1
ACDBPLACEHOLDER
  2
AcDbPlaceHolder
  3
ObjectDBX Classes
 90
        0
280
     0
281
     0
  0
CLASS
  1
LAYOUT
  2
AcDbLayout
  3
ObjectDBX Classes
 90
        0
280
     0
281
     0
  0
CLASS
  1
TABLESTYLE
  2
AcDbTableStyle
  3
ObjectDBX Classes
 90
     4095
280
     0
281
     0
  0
CLASS
  1
DIMASSOC
  2
AcDbDimAssoc
  3
"AcDbDimAssoc|Product Desc:     AcDim ARX App For Dimension|Company:          Autodesk, Inc.|WEB Address:      www.autodesk.com"
 90
        0
280
     0
281
     0
  0
CLASS
  1
DICTIONARYVAR
  2
AcDbDictionaryVar
  3
ObjectDBX Classes
 90
        0
280
     0
281
     0
  0
CLASS
  1
MATERIAL
  2
AcDbMaterial
  3
ObjectDBX Classes
 90
     1153
280
     0
281
     0
  0
CLASS
  1
VISUALSTYLE
  2
AcDbVisualStyle
  3
ObjectDBX Classes
 90
     4095
280
     0
281
     0
  0
CLASS
  1
SCALE
  2
AcDbScale
  3
ObjectDBX Classes
 90
     1153
280
     0
281
     0
  0
CLASS
  1
MLEADERSTYLE
  2
AcDbMLeaderStyle
  3
ACDB_MLEADERSTYLE_CLASS
 90
     4095
280
     0
281
     0
  0
CLASS
  1
CELLSTYLEMAP
  2
AcDbCellStyleMap
  3
ObjectDBX Classes
 90
     1152
280
     0
281
     0
  0
CLASS
  1
ACSH_HISTORY_CLASS
  2
AcDbShHistory
  3
ObjectDBX Classes
 90
     1153
280
     0
281
     0
  0
CLASS
  1
ACAD_EVALUATION_GRAPH
  2
AcDbEvalGraph
  3
ObjectDBX Classes
 90
     1153
280
     0
281
     0
  0
CLASS
  1
ACSH_EXTRUSION_CLASS
  2
AcDbShExtrusion
  3
ObjectDBX Classes
 90
     1153
280
     0
281
     0
  0
CLASS
  1
ACSH_REVOLVE_CLASS
  2
AcDbShRevolve
  3
ObjectDBX Classes
 90
     1153
280
     0
281
     0
  0
CLASS
  1
ACSH_BOOLEAN_CLASS
  2
AcDbShBoolean
  3
ObjectDBX Classes
 90
     1153
280
     0
281
     0
  0
CLASS
  1
ACDBPERSSUBENTMANAGER
  2
AcDbPersSubentManager
  3
AcDbPersSubentManager
 90
     1024
280
     0
281
     0
  0
CLASS
  1
ACDBASSOCPERSSUBENTMANAGER
  2
AcDbAssocPersSubentManager
  3
ObjectDBX Classes
 90
     1024
280
     0
281
     0
  0
CLASS
  1
SOLID_BACKGROUND
  2
AcDbSolidBackground
  3
SCENEOE
 90
     4095
280
     0
281
     0
  0
CLASS
  1
NPOCOLLECTION
  2
AcDbImpNonPersistentObjectsCollection
  3
ObjectDBX Classes
 90
     1153
280
     0
281
     0
  0
CLASS
  1
SORTENTSTABLE
  2
AcDbSortentsTable
  3
ObjectDBX Classes
 90
        0
280
     0
281
     0
  0
CLASS
  1
SURFACE
  2
AcDbSurface
  3
ObjectDBX Classes
 90
     4095
280
     0
281
     1
  0
ENDSEC
  0
SECTION
  2
TABLES
  0
TABLE
  2
VPORT
  5
8
330
0
100
AcDbSymbolTable
 70
     1
  0
VPORT
  5
166
330
8
100
AcDbSymbolTableRecord
100
AcDbViewportTableRecord
  2
*Active
 70
     0
 10
0.0
 20
0.0
 11
1.0
 21
1.0
 12
4.573495916585461
 22
13.35274504623444
 13
0.0
 23
0.0
 14
0.5
 24
0.5
 15
0.5
 25
0.5
 16
0.0
 26
-1.0
 36
0.0
 17
-0.7786139367288174
 27
-0.8718956227107593
 37
-8.909255745947207
 40
20.6076874095676
 41
2.132516703786191
 42
50.0
 43
0.0
 44
0.0
 50
0.0
 51
0.0
 71
     0
 72
   100
 73
     1
 74
     3
 75
     0
 76
     0
 77
     0
 78
     0
281
     0
 65
     1
110
0.0
120
0.0
130
0.0
111
1.0
121
0.0
131
0.0
112
0.0
122
0.0
132
1.0
 79
     0
146
0.0
1001
ACAD_NAV_VCDISPLAY
1070
     3
  0
ENDTAB
  0
TABLE
  2
LTYPE
  5
5
330
0
100
AcDbSymbolTable
 70
     2
  0
LTYPE
  5
14
330
5
100
AcDbSymbolTableRecord
100
AcDbLinetypeTableRecord
  2
ByBlock
 70
     0
  3

 72
    65
 73
     0
 40
0.0
  0
LTYPE
  5
15
330
5
100
AcDbSymbolTableRecord
100
AcDbLinetypeTableRecord
  2
ByLayer
 70
     0
  3

 72
    65
 73
     0
 40
0.0
  0
LTYPE
  5
16
330
5
100
AcDbSymbolTableRecord
100
AcDbLinetypeTableRecord
  2
Continuous
 70
     0
  3
Solid line
 72
    65
 73
     0
 40
0.0
  0
ENDTAB
  0
TABLE
  2
LAYER
  5
2
102
{ACAD_XDICTIONARY
360
20D
102
}
330
0
100
AcDbSymbolTable
 70
     3
  0
LAYER
  5
10
102
{ACAD_XDICTIONARY
360
255
102
}
330
2
100
AcDbSymbolTableRecord
100
AcDbLayerTableRecord
  2
0
 70
     0
 62
     7
  6
Continuous
370
    -3
390
F
  0
LAYER
  5
AB
102
{ACAD_XDICTIONARY
360
257
102
}
330
2
100
AcDbSymbolTableRecord
100
AcDbLayerTableRecord
  2
Layer1
 70
     0
 62
     1
  6
Continuous
290
     0
370
    -3
390
F
  0
LAYER
  5
F5
330
2
100
AcDbSymbolTableRecord
100
AcDbLayerTableRecord
  2
Defpoints
 70
     0
 62
     7
  6
Continuous
290
     0
370
    -3
390
F
  0
ENDTAB
  0
TABLE
  2
STYLE
  5
3
330
0
100
AcDbSymbolTable
 70
     1
  0
STYLE
  5
11
330
3
100
AcDbSymbolTableRecord
100
AcDbTextStyleTableRecord
  2
Standard
 70
     0
 40
0.0
 41
1.0
 50
0.0
 71
     0
 42
0.2
  3
txt
  4

  0
ENDTAB
  0
TABLE
  2
VIEW
  5
6
330
0
100
AcDbSymbolTable
 70
     0
  0
ENDTAB
  0
TABLE
  2
UCS
  5
7
330
0
100
AcDbSymbolTable
 70
     0
  0
ENDTAB
  0
TABLE
  2
APPID
  5
9
330
0
100
AcDbSymbolTable
 70
    12
  0
APPID
  5
12
330
9
100
AcDbSymbolTableRecord
100
AcDbRegAppTableRecord
  2
ACAD
 70
     0
  0
APPID
  5
F7
330
9
100
AcDbSymbolTableRecord
100
AcDbRegAppTableRecord
  2
ACAD_DSTYLE_DIMEXT_LENGTH
 70
     0
  0
APPID
  5
F8
330
9
100
AcDbSymbolTableRecord
100
AcDbRegAppTableRecord
  2
ACAD_DSTYLE_DIMEXT_ENABLED
 70
     0
  0
APPID
  5
F9
330
9
100
AcDbSymbolTableRecord
100
AcDbRegAppTableRecord
  2
ACAD_DSTYLE_DIMJOGGED_JOGANGLE_SYMBOL
 70
     0
  0
APPID
  5
FA
330
9
100
AcDbSymbolTableRecord
100
AcDbRegAppTableRecord
  2
ACAD_DSTYLE_DIMARC_LENGTH_SYMBOL
 70
     0
  0
APPID
  5
1B5
330
9
100
AcDbSymbolTableRecord
100
AcDbRegAppTableRecord
  2
ACAD_MLEADERVER
 70
     0
  0
APPID
  5
1C3
330
9
100
AcDbSymbolTableRecord
100
AcDbRegAppTableRecord
  2
ACAD_DSTYLE_DIMJAG
 70
     0
  0
APPID
  5
1C4
330
9
100
AcDbSymbolTableRecord
100
AcDbRegAppTableRecord
  2
ACAD_DSTYLE_DIMTALN
 70
     0
  0
APPID
  5
1EF
330
9
100
AcDbSymbolTableRecord
100
AcDbRegAppTableRecord
  2
AcadAnnotative
 70
     0
  0
APPID
  5
20B
330
9
100
AcDbSymbolTableRecord
100
AcDbRegAppTableRecord
  2
ACAD_PSEXT
 70
     0
  0
APPID
  5
20C
330
9
100
AcDbSymbolTableRecord
100
AcDbRegAppTableRecord
  2
ACAD_NAV_VCDISPLAY
 70
     0
  0
APPID
  5
241
330
9
100
AcDbSymbolTableRecord
100
AcDbRegAppTableRecord
  2
ACAD_EXEMPT_FROM_CAD_STANDARDS
 70
     0
  0
ENDTAB
  0
TABLE
  2
DIMSTYLE
  5
A
330
0
100
AcDbSymbolTable
 70
     4
100
AcDbDimStyleTable
 71
     2
340
F6
340
27
  0
DIMSTYLE
105
27
330
A
100
AcDbSymbolTableRecord
100
AcDbDimStyleTableRecord
  2
Standard
 70
     0
  3
"
 40
3.0
277
     5
340
11
342
4F
  0
DIMSTYLE
105
F6
330
A
100
AcDbSymbolTableRecord
100
AcDbDimStyleTableRecord
  2
OWP Standard
 70
     0
  3
"
 40
3.0
 41
0.2
 42
0.1
140
0.2
277
     5
340
11
342
4F
1001
ACAD_DSTYLE_DIMJOGGED_JOGANGLE_SYMBOL
1070
   384
1040
0.7853981633974483
1001
ACAD_DSTYLE_DIMJAG
1070
   388
1040
1.5
1001
ACAD_DSTYLE_DIMTALN
1070
   392
1070
     0
1001
ACAD_DSTYLE_DIMEXT_LENGTH
1070
   378
1040
0.18
  0
DIMSTYLE
105
1EE
330
A
100
AcDbSymbolTableRecord
100
AcDbDimStyleTableRecord
  2
Annotative
 70
     0
 40
0.0
340
11
1001
AcadAnnotative
1000
AnnotativeData
1002
{
1070
     1
1070
     1
1002
}
1001
ACAD_DSTYLE_DIMJAG
1070
   388
1040
1.5
1001
ACAD_DSTYLE_DIMTALN
1070
   392
1070
     0
  0
ENDTAB
  0
TABLE
  2
BLOCK_RECORD
  5
1
330
0
100
AcDbSymbolTable
 70
    35
  0
BLOCK_RECORD
  5
1F
102
{ACAD_XDICTIONARY
360
5C4
102
}
330
1
100
AcDbSymbolTableRecord
100
AcDbBlockTableRecord
  2
*Model_Space
340
22
  0
BLOCK_RECORD
  5
1B
330
1
100
AcDbSymbolTableRecord
100
AcDbBlockTableRecord
  2
*Paper_Space
340
1E
  0
BLOCK_RECORD
  5
23
330
1
100
AcDbSymbolTableRecord
100
AcDbBlockTableRecord
  2
*Paper_Space0
340
26
  0
BLOCK_RECORD
  5
4F
330
1
100
AcDbSymbolTableRecord
100
AcDbBlockTableRecord
  2
_ArchTick
340
0
102
{BLKREFS
331
2AE
331
2AF
331
2BB
331
2BC
331
2F6
331
2F7
331
300
331
301
331
30C
331
30D
331
319
331
31A
331
461
331
462
331
46E
331
46F
331
498
331
499
331
4A5
331
4A6
331
4B1
331
4B2
331
4BE
331
4BF
331
386
331
387
331
393
331
394
331
3CE
331
3CF
331
3D8
331
3D9
331
3E4
331
3E5
331
3F1
331
3F2
102
}
  0
BLOCK_RECORD
  5
BA
330
1
100
AcDbSymbolTableRecord
100
AcDbBlockTableRecord
  2
_Oblique
340
0
  0
BLOCK_RECORD
  5
1F0
330
1
100
AcDbSymbolTableRecord
100
AcDbBlockTableRecord
  2
A$C18112A55
340
0
1001
ACAD
1000
DesignCenter Data
1002
{
1070
     1
1070
     1
1002
}
  0
BLOCK_RECORD
  5
222
330
1
100
AcDbSymbolTableRecord
100
AcDbBlockTableRecord
  2
A$C11A96A75
340
0
1001
ACAD
1000
DesignCenter Data
1002
{
1070
     1
1070
     1
1002
}
  0
BLOCK_RECORD
  5
2A8
330
1
100
AcDbSymbolTableRecord
100
AcDbBlockTableRecord
  2
*D7
340
0
  0
BLOCK_RECORD
  5
2B5
330
1
100
AcDbSymbolTableRecord
100
AcDbBlockTableRecord
  2
*D8
340
0
  0
BLOCK_RECORD
  5
2D8
330
1
100
AcDbSymbolTableRecord
100
AcDbBlockTableRecord
  2
*D10
340
0
  0
BLOCK_RECORD
  5
2E5
330
1
100
AcDbSymbolTableRecord
100
AcDbBlockTableRecord
  2
*D11
340
0
  0
BLOCK_RECORD
  5
306
330
1
100
AcDbSymbolTableRecord
100
AcDbBlockTableRecord
  2
*D12
340
0
  0
BLOCK_RECORD
  5
313
330
1
100
AcDbSymbolTableRecord
100
AcDbBlockTableRecord
  2
*D13
340
0
  0
BLOCK_RECORD
  5
320
330
1
100
AcDbSymbolTableRecord
100
AcDbBlockTableRecord
  2
A$C297B00DD
340
0
1001
ACAD
1000
DesignCenter Data
1002
{
1070
     1
1070
     1
1002
}
  0
BLOCK_RECORD
  5
380
330
1
100
AcDbSymbolTableRecord
100
AcDbBlockTableRecord
  2
*D15
340
0
  0
BLOCK_RECORD
  5
38D
330
1
100
AcDbSymbolTableRecord
100
AcDbBlockTableRecord
  2
*D16
340
0
  0
BLOCK_RECORD
  5
3B0
330
1
100
AcDbSymbolTableRecord
100
AcDbBlockTableRecord
  2
*D18
340
0
  0
BLOCK_RECORD
  5
3BD
330
1
100
AcDbSymbolTableRecord
100
AcDbBlockTableRecord
  2
*D19
340
0
  0
BLOCK_RECORD
  5
3DE
330
1
100
AcDbSymbolTableRecord
100
AcDbBlockTableRecord
  2
*D20
340
0
  0
BLOCK_RECORD
  5
3EB
330
1
100
AcDbSymbolTableRecord
100
AcDbBlockTableRecord
  2
*D21
340
0
  0
BLOCK_RECORD
  5
3F8
330
1
100
AcDbSymbolTableRecord
100
AcDbBlockTableRecord
  2
A$C59227C8C
340
0
1001
ACAD
1000
DesignCenter Data
1002
{
1070
     1
1070
     1
1002
}
  0
BLOCK_RECORD
  5
45B
330
1
100
AcDbSymbolTableRecord
100
AcDbBlockTableRecord
  2
*D23
340
0
  0
BLOCK_RECORD
  5
468
330
1
100
AcDbSymbolTableRecord
100
AcDbBlockTableRecord
  2
*D24
340
0
  0
BLOCK_RECORD
  5
491
330
1
100
AcDbSymbolTableRecord
100
AcDbBlockTableRecord
  2
*D26
340
0
  0
BLOCK_RECORD
  5
49E
330
1
100
AcDbSymbolTableRecord
100
AcDbBlockTableRecord
  2
*D27
340
0
  0
BLOCK_RECORD
  5
4AB
330
1
100
AcDbSymbolTableRecord
100
AcDbBlockTableRecord
  2
*D28
340
0
  0
BLOCK_RECORD
  5
4B8
330
1
100
AcDbSymbolTableRecord
100
AcDbBlockTableRecord
  2
*D29
340
0
  0
BLOCK_RECORD
  5
4C5
330
1
100
AcDbSymbolTableRecord
100
AcDbBlockTableRecord
  2
A$C037015A8
340
0
1001
ACAD
1000
DesignCenter Data
1002
{
1070
     1
1070
     1
1002
}
  0
BLOCK_RECORD
  5
54D
102
{ACAD_XDICTIONARY
360
55D
102
}
330
1
100
AcDbSymbolTableRecord
100
AcDbBlockTableRecord
  2
A$C5C515128
340
0
1001
ACAD
1000
DesignCenter Data
1002
{
1070
     1
1070
     1
1002
}
  0
BLOCK_RECORD
  5
5D3
102
{ACAD_XDICTIONARY
360
5D5
102
}
330
1
100
AcDbSymbolTableRecord
100
AcDbBlockTableRecord
  2
A$C0BB15F01
340
0
1001
ACAD
1000
DesignCenter Data
1002
{
1070
     1
1070
     1
1002
}
  0
ENDTAB
  0
ENDSEC
  0
SECTION
  2
BLOCKS
  0
BLOCK
  5
20
330
1F
100
AcDbEntity
  8
0
100
AcDbBlockBegin
  2
*Model_Space
 70
     0
 10
0.0
 20
0.0
 30
0.0
  3
*Model_Space
  1

  0
ENDBLK
  5
21
330
1F
100
AcDbEntity
  8
0
100
AcDbBlockEnd
  0
BLOCK
  5
1C
330
1B
100
AcDbEntity
 67
     1
  8
0
100
AcDbBlockBegin
  2
*Paper_Space
 70
     0
 10
0.0
 20
0.0
 30
0.0
  3
*Paper_Space
  1

  0
ENDBLK
  5
1D
330
1B
100
AcDbEntity
 67
     1
  8
0
100
AcDbBlockEnd
  0
BLOCK
  5
24
330
23
100
AcDbEntity
 67
     1
  8
0
100
AcDbBlockBegin
  2
*Paper_Space0
 70
     0
 10
0.0
 20
0.0
 30
0.0
  3
*Paper_Space0
  1

  0
ENDBLK
  5
25
330
23
100
AcDbEntity
 67
     1
  8
0
100
AcDbBlockEnd
  0
BLOCK
  5
51
330
4F
100
AcDbEntity
  8
0
100
AcDbBlockBegin
  2
_ArchTick
 70
     0
 10
0.0
 20
0.0
 30
0.0
  3
_ArchTick
  1

  0
LWPOLYLINE
  5
50
330
4F
100
AcDbEntity
  8
0
 62
     0
100
AcDbPolyline
 90
        2
 70
     0
 43
0.15
 10
-0.5
 20
-0.5
 10
0.5
 20
0.5
  0
ENDBLK
  5
52
330
4F
100
AcDbEntity
  8
0
100
AcDbBlockEnd
  0
BLOCK
  5
BB
330
BA
100
AcDbEntity
  8
0
100
AcDbBlockBegin
  2
_Oblique
 70
     0
 10
0.0
 20
0.0
 30
0.0
  3
_Oblique
  1

  0
LINE
  5
BC
330
BA
100
AcDbEntity
  8
0
  6
ByBlock
 62
     0
370
    -2
100
AcDbLine
 10
-0.5
 20
-0.5
 30
0.0
 11
0.5
 21
0.5
 31
0.0
  0
ENDBLK
  5
BD
330
BA
100
AcDbEntity
  8
0
100
AcDbBlockEnd
  0
BLOCK
  5
1F7
330
1F0
100
AcDbEntity
  8
0
100
AcDbBlockBegin
  2
A$C18112A55
 70
     0
 10
0.0
 20
0.0
 30
0.0
  3
A$C18112A55
  1

  0
3DSOLID
  5
1F1
330
1F0
100
AcDbEntity
  8
0
100
AcDbModelerGeometry
 70
     1
  1
koo jmf n o         
  1
ni ^ *+0;:,4 ^ *+0\^ [ nf ^ LR mnhqoqoqkjol QK o  
  1
mjqlffffffffffffff fqfffffffffffffffj:rooh n:rono 
  1
=0;& {rn {n {rn {rn |
  1
3*2/ {rn {rn {m {o |
  1
,7:33 {rn {rn {rn {l {rn {n |
  1
9><: {k {j {i {m {rn {h 90-(>-; ,6183: |
  1
2>+:-6>3r>;:,4r>++-6= {rn {g {rn {l lhi o |
  1
9><: {f {no {nn {m {rn {nm 90-(>-; ,6183: |
  1
300/ {rn {nl {nk {l |
  1
+0-*,r,*-9><: {rn kqinhikojlojlnikj mqgmohohkjjimnklof rl nqglifhonfghmnomfh:roni n o kgqngfihnmmhgmnikg rkiqggijfofhgjgjnok o o n 90-(>-;@) V V V V |
  1
/:-,*=:1+r><>;L036;W6,+0-&r>++-6= {rn {rn {k {l n m m o |
  1
2>+:-6>3r>;:,4r>++-6= {rn {nj {rn {j lhi o |
  1
9><: {ni {nh {ng {m {rn {nf 90-(>-; ,6183: |
  1
300/ {rn {mo {mn {j |
  1
+0-*,r,*-9><: {rn kqinhikojlojlnikj mqljiijgflknnnnkjm rl nqglifhonfghmnomfh:roni n o kiqknmnkjlfmogijkl rkjqngogklkmllinjkk o o n 90-(>-;@) V V V V |
  1
300/ {rn {rn {mm {l |
  1
<0:;8: {rn {nk {nk {ml {mk -:):-,:; {i {rn |
  1
/:-,*=:1+r><>;L036;W6,+0-&r>++-6= {rn {rn {f {j n m l o |
  1
2>+:-6>3r>;:,4r>++-6= {rn {mj {rn {no lhi o |
  1
9><: {mi {mh {mg {m {rn {mf 90-(>-; ,6183: |
  1
300/ {rn {lo {ln {no |
  1
+0-*,r,*-9><: {rn kqinhikojlojlnikgi niqkofffmhmofnhkim rl nqglifhonfghmnomfh:roni n o rfqglgifjfhnmhjolig nmqgmfgfhfhofjfkfl o o n 90-(>-;@) V V V V |
  1
300/ {rn {rn {ml {j |
  1
<0:;8: {rn {mn {mn {lm {ll -:):-,:; {nn {rn |
  1
<0:;8: {rn {mm {mm {lk {lj 90-(>-; {nl {rn |
  1
<0:;8: {rn {ml {ml {nk {mk 90-(>-; {mo {rn |
  1
:;8: {rn {li {li {ml {lh 90-(>-; |
  1
/:-,*=:1+r><>;L036;W6,+0-&r>++-6= {rn {rn {ni {no n m k o |
  1
2>+:-6>3r>;:,4r>++-6= {rn {lg {rn {nh lhi o |
  1
9><: {lf {ko {kn {m {rn {km 90-(>-; ,6183: |
  1
300/ {rn {kl {kk {nh |
  1
+0-*,r,*-9><: {rn kqinhikojlojlnikgi njqlffolnlkigomfhg rl nqglifhonfghmnomfh:roni n o oqgjmojghohfonmffhg mqnonjlmkhfgkojok o o n 90-(>-;@) V V V V |
  1
300/ {rn {rn {lm {no |
  1
<0:;8: {rn {ln {ln {kj {ki -:):-,:; {ng {rn |
  1
<0:;8: {rn {lm {lm {mn {ll 90-(>-; {lo {rn |
  1
:;8: {rn {kh {kh {lm {kg 90-(>-; |
  1
<0:;8: {rn {lk {lk {mm {lj -:):-,:; {kf {rn |
  1
:;8: {rn {jo {jo {mm {jn 90-(>-; |
  1
):-+:' {rn {mk {jm |
  1
:336/,:r<*-): {rn kqinhikojlojlnikj gqlmgmigoljkjhmoij rl nqglifhonfghmnomfh:roni n o nqimhihgmjonjnhfjh rmqfgfffiklgiljmkng:roni o n V V |
  1
/:-,*=:1+r><>;L036;W6,+0-&r>++-6= {rn {rn {mi {nh n m j o |
  1
2>+:-6>3r>;:,4r>++-6= {rn {jl {rn {mh lhi o |
  1
9><: {jk {jj {ji {m {rn {jh 90-(>-; ,6183: |
  1
300/ {rn {jg {jf {mh |
  1
<01:r,*-9><: {rn kqinhikojlojlnikgi niqffiohflnjnmgfkm rl nqglifhonfghmnomfh:roni n o mqmjoijlnlkhjnfhnm rkqnlklgmhlinfhklih:roni o n V V o n mqmjoijlnlkhjnfhnm 90-(>-; V V V V |
  1
300/ {rn {rn {kj {nh |
  1
<0:;8: {rn {kk {kk {io {in -:):-,:; {mg {rn |
  1
<0:;8: {rn {kj {kj {ln {ki 90-(>-; {kl {rn |
  1
:;8: {rn {im {im {kj {il 90-(>-; |
  1
):-+:' {rn {ll {ik |
  1
:336/,:r<*-): {rn kqinhikojlojlnikgi nmqjklojkmjjokghhi rl nqglifhonfghmnomfh:roni n o mqlfkjgnnlgjhikmlh rkqlfghhkngffgklimk:roni o n V V |
  1
300/ {rn {ij {lk {ii |
  1
):-+:' {rn {lj {ih |
  1
:336/,:r<*-): {rn kqinhikojlojlnikj iqhmnjmoonlglmhhln rl nqglifhonfghmnomfh:roni n o nqkijimfjoklmhllnh rmqifmlnhhmngnjjgmh:roni o n V V |
  1
/061+ {rn iqmkjlnghgoiglkkoh gqlmgmigoljkjhnffk rl |
  1
/:-,*=:1+r><>;L036;W6,+0-&r>++-6= {rn {rn {lf {mh l m i o m g o m nk o |
  1
2>+:-6>3r>;:,4r>++-6= {rn {ig {rn {ko lhi o |
  1
9><: {if {ho {hn {m {rn {hm 90-(>-; ,6183: |
  1
300/ {rn {hl {hk {ko |
  1
+0-*,r,*-9><: {rn kqinhikojlojlnikgi nhqiomhfilomnljlgg rl nqglifhonfghmnomfh:roni n o mqklfffignnnlfnkmk roqiogklgolghhhhhgjg o o n 90-(>-;@) V V V V |
  1
300/ {rn {rn {io {mh |
  1
<0:;8: {rn {jf {jf {hj {hi -:):-,:; {kn {rn |
  1
<0:;8: {rn {io {io {kk {in 90-(>-; {jg {rn |
  1
:;8: {rn {hh {hh {io {hg 90-(>-; |
  1
):-+:' {rn {ki {hf |
  1
:336/,:r<*-): {rn kqinhikojlojlnikgi njqkmioimlnhlkfmnh rl nqglifhonfghmnomfh:roni n o mqfjlknhllhjiljmjj rjqkmjllfillkfomoli:roni o n V V |
  1
/061+ {rn hqonmmmniifnogohml nmqjklojkmjjokghhi rl |
  1
300/ {rn {rn {go {ii |
  1
9><: {gn {gm {kf {m {rn {gl 90-(>-; ,6183: |
  1
/061+ {rn iqoglmhoolkgjgfhig iqhmnjmoonlglmhii rl |
  1
/:-,*=:1+r><>;L036;W6,+0-&r>++-6= {rn {rn {jk {ko n m h o |
  1
2>+:-6>3r>;:,4r>++-6= {rn {gk {rn {jj lhi o |
  1
9><: {gj {gi {gh {m {rn {gg 90-(>-; ,6183: |
  1
300/ {rn {gf {fo {jj |
  1
<01:r,*-9><: {rn kqinhikojlojlnikgi ngqmnmhilinimhnjkn rl nqglifhonfghmnomfh:roni n o mqmjoijlnlkhjnfkmh rkqnlklgmhlinfhlgkk:roni o n V V o n mqmjoijlnlkhjnfkmh 90-(>-; V V V V |
  1
300/ {rn {rn {hj {ko |
  1
<0:;8: {rn {hk {hk {fn {fm -:):-,:; {ji {rn |
  1
<0:;8: {rn {hj {hj {jf {hi 90-(>-; {hl {rn |
  1
:;8: {rn {fl {fl {hj {fk 90-(>-; |
  1
):-+:' {rn {in {fj |
  1
:336/,:r<*-): {rn kqinhikojlojlnikgi niqfihjgghhnoonoog rl nqglifhonfghmnomfh:roni n o mqmjoijlnlkhjnfhnm rkqnlklgmhlinfhklih:roni o n V V |
  1
/061+ {rn hqjhnojhgigofjnhkn njqkmioimlnhlkfmnh rl |
  1
<0:;8: {rn {go {go {fi {fh 90-(>-; {ij {rn |
  1
2>+:-6>3r>;:,4r>++-6= {rn {fg {rn {ii lhi o |
  1
9><: {ff {noo {non {m {rn {nom 90-(>-; ,6183: |
  1
<01:r,*-9><: {rn kqinhikojlojlnikj iqoghnfjfmokngnfim rl nqglifhonfghmnomfh:roni n o nqklillnmkjgnkkflm rmqilgkfhifkojlohlg:roni o n V V oqokinlgfikknlgljhlk oqffgfljolofongnfkj nqklillnmkjgnkkflm 90-(>-; V V V V |
  1
/:-,*=:1+r><>;L036;W6,+0-&r>++-6= {rn {rn {if {jj l m i o m g o m nk o |
  1
2>+:-6>3r>;:,4r>++-6= {rn {nol {rn {ho lhi o |
  1
9><: {nok {noj {noi {m {rn {noh 90-(>-; ,6183: |
  1
300/ {rn {nog {nof {ho |
  1
+0-*,r,*-9><: {rn kqinhikojlojlnikgi ngqgofiojkomgfglkj rl nqglifhonfghmnomfh:roni n o mqoogllkmimjnjojik oqinkgilhfonnlgggol o o n 90-(>-;@) V V V V |
  1
300/ {rn {rn {fn {jj |
  1
<0:;8: {rn {fo {fo {nno {nnn -:):-,:; {hn {rn |
  1
<0:;8: {rn {fn {fn {hk {fm 90-(>-; {gf {rn |
  1
:;8: {rn {nnm {nnm {fn {nnl 90-(>-; |
  1
):-+:' {rn {hi {nnk |
  1
:336/,:r<*-): {rn kqinhikojlojlnikgi nhqomkjifgjfmjighj rl nqglifhonfghmnomfh:roni n o mqmjoijlnlkhjnfhnm rkqnlklgmhlinfhklih:roni o n V V |
  1
/061+ {rn iqgigmfliijmglinfh niqfihjgghhnoonoog rl |
  1
<0:;8: {rn {fi {fi {go {fh -:):-,:; {nnj {rn |
  1
:;8: {rn {nni {nni {go {nnh 90-(>-; |
  1
/:-,*=:1+r><>;L036;W6,+0-&r>++-6= {rn {rn {gn {ii n m n o |
  1
/:-,*=:1+r><>;L036;W6,+0-&r>++-6= {rn {nng {rn {gm n n nooooooooo n |
  1
9><: {nnf {nmo {nmn {m {rn {nmm 90-(>-; ,6183: |
  1
300/ {rn {rn {nml {gm |
  1
/3>1:r,*-9><: {rn kqinhikojlojlnikj nkqkfffffflgjhhoml o o o n rnqglifhonfghmnomfh:roni rn o 90-(>-;@) V V V V |
  1
/:-,*=:1+r><>;L036;W6,+0-&r>++-6= {rn {rn {gj {ho n m f o |
  1
2>+:-6>3r>;:,4r>++-6= {rn {nmk {rn {gi lhi o |
  1
9><: {nmj {nmi {nmh {m {rn {nmg 90-(>-; ,6183: |
  1
300/ {rn {nmf {nlo {gi |
  1
+0-*,r,*-9><: {rn kqinhikojlojlnikgi nfqmikgfgkoommlnnk rl nqglifhonfghmnomfh:roni n o mqmjooljgnghknjlon oqiojhmnnhfomlnofjn o o n 90-(>-;@) V V V V |
  1
300/ {rn {rn {nno {ho |
  1
<0:;8: {rn {nof {nof {nln {nlm -:):-,:; {gh {rn |
  1
<0:;8: {rn {nno {nno {fo {nnn 90-(>-; {nog {rn |
  1
:;8: {rn {nll {nll {nno {nlk 90-(>-; |
  1
):-+:' {rn {fm {nlj |
  1
:336/,:r<*-): {rn kqinhikojlojlnikgi ngqngnommhkjonlgfj rl nqglifhonfghmnomfh:roni n o mqmjoijlnlkhjnfkil rkqnlklgmhlinfhlfnl:roni o n V V |
  1
/061+ {rn iqgigmfliijmglinfh nhqomkjifgjfmjighj rl |
  1
300/ {rn {nli {fi {nlh |
  1
):-+:' {rn {fh {nlg |
  1
:336/,:r<*-): {rn kqinhikojlojlnikj jqkjmghngmhoolimij rl nqglifhonfghmnomfh:roni n o nqkoholmfghlonijnm rmqjgkihhiiimfojjg:roni o n V V |
  1
2>+:-6>3r>;:,4r>++-6= {rn {rn {ff {gm lhi o |
  1
/:-,*=:1+r><>;L036;W6,+0-&r>++-6= {rn {nlf {rn {noo n n k o |
  1
9><: {nko {nkn {nkm {m {rn {nkl 90-(>-; ,6183: |
  1
300/ {rn {rn {nkk {noo |
  1
/3>1:r,*-9><: {rn hqinhikojlojlniknj riqnkmmfghjgjokifk:roog o n rjqjnmnfnmkjhjioloi:roni o o o n 90-(>-;@) V V V V |
  1
<0:;8: {rn {nkj {nki {nkh {nkg -:):-,:; {non {rn |
  1
/:-,*=:1+r><>;L036;W6,+0-&r>++-6= {rn {rn {nok {gi n m no o |
  1
2>+:-6>3r>;:,4r>++-6= {rn {nkf {rn {noj lhi o |
  1
9><: {njo {njn {njm {m {rn {njl 90-(>-; ,6183: |
  1
300/ {rn {njk {njj {noj |
  1
+0-*,r,*-9><: {rn kqinhikojlojlnikgi nfqhfgfjinkfkinmfh rl nqglifhonfghmnomfh:roni n o mqmmhjolhhokhfhmkf oqhmifkknmfgklglohm o o n 90-(>-;@) V V V V |
  1
300/ {rn {rn {nln {gi |
  1
<0:;8: {rn {nlo {nlo {nji {njh -:):-,:; {noi {rn |
  1
<0:;8: {rn {nln {nln {nof {nlm 90-(>-; {nmf {rn |
  1
:;8: {rn {njg {njg {nln {njf 90-(>-; |
  1
):-+:' {rn {nnn {nio |
  1
:336/,:r<*-): {rn kqinhikojlojlnikgi ngqmkkjokkghjmfngg rl nqglifhonfghmnomfh:roni n o mqmjoijlnlkhjnfkmh rkqnlklgmhlinfhlgkk:roni o n V V |
  1
/061+ {rn iqgigmfliijmgljfkf ngqngnommhkjonlgfj rl |
  1
300/ {rn {rn {nin {nlh |
  1
9><: {nim {ii {nnj {m {rn {nil 90-(>-; ,6183: |
  1
/061+ {rn iqomkihljnhgllmfim jqkjmghngmhoolinfk rl |
  1
2>+:-6>3r>;:,4r>++-6= {rn {rn {nnf {noo lhi o |
  1
/:-,*=:1+r><>;L036;W6,+0-&r>++-6= {rn {nik {rn {nmo m n l o m mk o |
  1
9><: {nij {nii {nih {m {rn {nig 90-(>-; ,6183: |
  1
300/ {rn {rn {nif {nmo |
  1
/3>1:r,*-9><: {rn nqinhikojlojlniknj riqnkmmfghjgjokifk:roog o rnqglifhonfghmnomfh:roni rn o o o rn 90-(>-;@) V V V V |
  1
<0:;8: {rn {nho {nhn {nhm {nhl -:):-,:; {nmn {rn |
  1
<0:;8: {rn {nhk {nml {nhn {nhj 90-(>-; {non {rn |
  1
<0:;8: {rn {nml {nhk {nhi {nhh 90-(>-; {non {rn |
  1
<0:;8: {rn {nhg {nhm {nml {nkg 90-(>-; {nhf {rn |
  1
:;8: {rn {ngo {ngn {nml {ngm 90-(>-; |
  1
/:-,*=:1+r><>;L036;W6,+0-&r>++-6= {rn {rn {nmj {noj n m nn o |
  1
2>+:-6>3r>;:,4r>++-6= {rn {ngl {rn {nmi lhi o |
  1
9><: {ngk {ngj {ngi {m {rn {ngh 90-(>-; ,6183: |
  1
300/ {rn {ngg {ngf {nmi |
  1
+0-*,r,*-9><: {rn kqinhikojlojlnikgi moqlllonlgfgiffkfn rl nqglifhonfghmnomfh:roni n o mqmjooljgnghknjlon oqiojhmnnhfomlnofjn o o n 90-(>-;@) V V V V |
  1
300/ {rn {rn {nji {noj |
  1
<0:;8: {rn {njj {njj {nfo {nfn -:):-,:; {nmh {rn |
  1
<0:;8: {rn {nji {nji {nlo {njh 90-(>-; {njk {rn |
  1
:;8: {rn {nfm {nfm {nji {nfl 90-(>-; |
  1
):-+:' {rn {nlm {nfk |
  1
:336/,:r<*-): {rn kqinhikojlojlnikgi ngqhghkingfkhmfmlh rl nqglifhonfghmnomfh:roni n o mqimmhffnggiknnhhf rkqgngoolfkihiljkom:roni o n V V |
  1
/061+ {rn iqgigmfliijmgljfnl ngqmkkjokkghjmfngg rl |
  1
<0:;8: {rn {nin {nin {nfj {nfi 90-(>-; {nli {rn |
  1
2>+:-6>3r>;:,4r>++-6= {rn {nfh {rn {nlh lhi o |
  1
+0-*,r,*-9><: {rn kqinhikojlojlnikj jqmgmknllglmoinfok rl nqglifhonfghmnomfh:roni n o nqllmmlmklgklhofml oqnginkgllikhkijfih o o n 90-(>-;@) V V V V |
  1
2>+:-6>3r>;:,4r>++-6= {rn {rn {nko {nmo lhi o |
  1
2>+:-6>3r>;:,4r>++-6= {rn {nfg {rn {nkn lhi o |
  1
9><: {nff {moo {mon {m {rn {mom 90-(>-; ,6183: |
  1
300/ {rn {rn {mol {nkn |
  1
/3>1:r,*-9><: {rn nqinhikojlojlnikj mgqffffffflgjhhoni o rn nqglifhonfghmnomfh:roni o o o rn 90-(>-;@) V V V V |
  1
<0:;8: {rn {nif {nif {mok {moj -:):-,:; {nkm {rn |
  1
<0:;8: {rn {moi {nkk {moh {mog 90-(>-; {nmn {rn |
  1
<0:;8: {rn {nkk {moi {nkj {nhj -:):-,:; {nmn {rn |
  1
<0:;8: {rn {nkh {mof {nkk {nhl 90-(>-; {nhf {rn |
  1
:;8: {rn {mno {ngo {nkk {mnn 90-(>-; |
  1
<0:;8: {rn {nki {nkj {mnm {mnl 90-(>-; {non {rn |
  1
:;8: {rn {ngo {mnk {nhn {mnj 90-(>-; |
  1
<0:;8: {rn {mni {mol {nki {nhh -:):-,:; {nih {rn |
  1
:;8: {rn {mnh {ngn {nhi {mng 90-(>-; |
  1
<0:;8: {rn {mof {nkh {mol {mnf 90-(>-; {nhf {rn |
  1
300/ {rn {mmo {nhm {mmn |
  1
):-+:' {rn {nhj {mmm |
  1
):-+:' {rn {nkg {mml |
  1
61+<*-):r<*-): {rn 90-(>-; $ :'><+<*- 1*-=, m 0/:1 m 
  1
 oqlijkfjonhhnflolof m iqgimmmfihmikknjnm m 
  1
 hqinhikojlojlnijjh mkqkiflhgmgooonhgk nqojkhnnghllflgfgh:ronj nqojnhhiifmjgkgnk 
  1
 kqinhikojlojlnhojk mlqlklmgkikojgojfj nqomohiljhomjljhl:roni nqkghkligilmknolmm 
  1
 nqinhikojlojlnikj mkqkiflhgmgooonhgg nqnnommlomkimjnjij:roni nqojnhhiifmjgkgnkf 
  1
 o 
  1
 1*33@,*-9><: 
  1
 1*33@,*-9><: 
  1
 1*33=, 
  1
 1*33=, 
  1
 V V 
  1
 o 
  1
 o 
  1
 o 
  1
 Y n Y o " V V |
  1
/:-,*=:1+r><>;L036;W6,+0-&r>++-6= {rn {rn {njo {nmi n m nm o |
  1
2>+:-6>3r>;:,4r>++-6= {rn {mmk {rn {njn lhi o |
  1
9><: {mmj {mmi {mmh {m {rn {mmg 90-(>-; ,6183: |
  1
300/ {rn {mmf {mlo {njn |
  1
+0-*,r,*-9><: {rn kqinhikojlojlnikgi moqhggloigfiomkmi rl nqglifhonfghmnomfh:roni n o mqoogllkmimjnjojik oqinkgilhfonnlgggol o o n 90-(>-;@) V V V V |
  1
300/ {rn {rn {nfo {nmi |
  1
<0:;8: {rn {ngf {ngf {mln {mlm -:):-,:; {njm {rn |
  1
<0:;8: {rn {nfo {nfo {njj {nfn 90-(>-; {ngg {rn |
  1
:;8: {rn {mll {mll {nfo {mlk 90-(>-; |
  1
):-+:' {rn {njh {mlj |
  1
:336/,:r<*-): {rn kqinhikojlojlnikgi nfqkoioohihkighjfh rl nqglifhonfghmnomfh:roni n o mqglfofnmijjngnfmn rjqmnjlmiokimoioflm:roni o n V V |
  1
/061+ {rn hqmkoklfhnfnhmgmij ngqhghkingfkhmfmlh rl |
  1
<0:;8: {rn {nfj {nfj {nin {nfi -:):-,:; {mli {rn |
  1
:;8: {rn {mlh {mlh {nin {mlg 90-(>-; |
  1
/:-,*=:1+r><>;L036;W6,+0-&r>++-6= {rn {rn {nim {nlh n m ko o |
  1
/:-,*=:1+r><>;L036;W6,+0-&r>++-6= {rn {rn {nij {nkn n n m o |
  1
2>+:-6>3r>;:,4r>++-6= {rn {mlf {rn {nii lhi o |
  1
9><: {mko {rn {mkn {m {rn {mkm -:):-,:; ,6183: |
  1
300/ {rn {rn {mkl {nii |
  1
/3>1:r,*-9><: {rn hqinhikojlojlnijjh mgqffffffflgjhhonm o nqglifhonfghmnomfh:roni n o o o n 90-(>-;@) V V V V |
  1
<0:;8: {rn {nhi {mkk {nhg {mnf -:):-,:; {nih {rn |
  1
<0:;8: {rn {mok {mok {nif {moj 90-(>-; {mkj {rn |
  1
:;8: {rn {mki {mki {nif {mkh 90-(>-; |
  1
<0:;8: {rn {nhn {nho {mkg {mkf -:):-,:; {nmn {rn |
  1
<0:;8: {rn {mjo {mjn {nho {mog -:):-,:; {mkn {rn |
  1
:;8: {rn {mno {mjm {nho {mjl 90-(>-; |
  1
<0:;8: {rn {nhm {nhg {mjo {mjk 90-(>-; {nhf {rn |
  1
):-+:' {rn {mog {mjj |
  1
61+<*-):r<*-): {rn 90-(>-; $ :'><+<*- 1*-=, m 0/:1 m 
  1
 oqlijkfjonhhnflnlln m iqgimmmfihmikknjfm m 
  1
 hqinhikojlojlnijjh mkqkiflhgmgooonhgk riqooooooooooooooof nqojnhhiifmjgkgnkm 
  1
 hqinhikojlojlnijfm mlqlklmgkikojgojfm rlqooooooooooooojll nqkghkligilmknommm 
  1
 hqinhikojlojlnijjh mkqkiflhgmgooonhgk nqojkhnnghllflgfgh:ronj nqojnhhiifmjgkgnkm 
  1
 o 
  1
 1*33@,*-9><: 
  1
 1*33@,*-9><: 
  1
 1*33=, 
  1
 1*33=, 
  1
 V V 
  1
 o 
  1
 o 
  1
 o 
  1
 Y n Y o " V V |
  1
<0:;8: {rn {mkg {mji {nhk {mnl -:):-,:; {mon {rn |
  1
:;8: {rn {mnk {mnh {mnm {mjh 90-(>-; |
  1
):-+:' {rn {mnl {mjg |
  1
,+->687+r<*-): {rn hqinhikojlojlniknj riqnkmmfghjgjokifk:roog o jqjnmnfnmkjhjioloi:roni n o V V |
  1
<0:;8: {rn {mkk {nhi {mji {mjf 90-(>-; {nih {rn |
  1
):-+:' {rn {mnl {mio |
  1
,+->687+r<*-): {rn nqinhikojlojlnikj mgqffffffflgjhhoni o rnqglifhonfghmnomfh:roni rn o V V |
  1
:;8: {rn {ngn {min {mol {mim 90-(>-; |
  1
300/ {rn {rn {mil {mmn |
  1
9><: {mik {mij {nhf {m {rn {mii 90-(>-; ,6183: |
  1
/061+ {rn hqinhikojlojlnijjh mkqkiflhgmgooonhgk nqojkhnnghllflgfgh:ronj |
  1
/061+ {rn nqinhikojlojlnikj mkqkiflhgmgooonhgg nqnnommlomkimjnjij:roni |
  1
/:-,*=:1+r><>;L036;W6,+0-&r>++-6= {rn {rn {ngk {njn n m nl o |
  1
2>+:-6>3r>;:,4r>++-6= {rn {mih {rn {ngj lhi o |
  1
9><: {mig {mif {mho {m {rn {mhn 90-(>-; ,6183: |
  1
300/ {rn {mhm {mhl {ngj |
  1
<01:r,*-9><: {rn kqinhikojlojlnikgi mnqlgjnkgigmijnoi rl nqglifhonfghmnomfh:roni n o mqmjoijlnlkhjnflji rkqnlklgmhlinfhlhni:roni o n V V o n mqmjoijlnlkhjnflji 90-(>-; V V V V |
  1
300/ {rn {rn {mln {njn |
  1
<0:;8: {rn {mlo {mlo {mhk {mhj -:):-,:; {ngi {rn |
  1
<0:;8: {rn {mln {mln {ngf {mlm 90-(>-; {mmf {rn |
  1
:;8: {rn {mhi {mhi {mln {mhh 90-(>-; |
  1
):-+:' {rn {nfn {mhg |
  1
:336/,:r<*-): {rn kqinhikojlojlnikgi moqnfnfokimkmljonn rl nqglifhonfghmnomfh:roni n o mqglfofnmijjngnfmn rjqmnjlmiokimoioflm:roni o n V V |
  1
/061+ {rn hqkjihlnhfiokfgkoh nfqkoioohihkighjfh rl |
  1
300/ {rn {mhf {nfj {mgo |
  1
):-+:' {rn {nfi {mgn |
  1
:336/,:r<*-): {rn kqinhikojlojlnikj jqnomhlggolmolinkl rl nqglifhonfghmnomfh:roni n o nqlgogfhofnijghnhn rmqjliiiigokghhiojl:roni o n V V |
  1
/:-,*=:1+r><>;L036;W6,+0-&r>++-6= {rn {rn {nff {nii m n n o m mm o |
  1
2>+:-6>3r>;:,4r>++-6= {rn {mgm {rn {moo lhi o |
  1
300/ {rn {rn {mjo {moo |
  1
/3>1:r,*-9><: {rn kqinhikojlojlnikj nkqkfffffflgjhhoml ri o o n rnqglifhonfghmnomfh:roni rn o 90-(>-;@) V V V V |
  1
<0:;8: {rn {mji {mkg {mjn {mgl 90-(>-; {mon {rn |
  1
<0:;8: {rn {mol {mni {mgk {mgj 90-(>-; {nih {rn |
  1
300/ {rn {rn {mok {mij |
  1
):-+:' {rn {moj {mgi |
  1
:336/,:r<*-): {rn kqinhikojlojlnikj riqnkmmfghjgjokifk:roog rl nqglifhonfghmnomfh:roni n o nqoooooooooooooonl rnqglifhonfghmnolnf:roni o n V V |
  1
<0:;8: {rn {mkl {mnm {moi {mkf 90-(>-; {mon {rn |
  1
:;8: {rn {mnk {mjm {mkg {mgh 90-(>-; |
  1
<0:;8: {rn {mgk {moh {mof {mjk -:):-,:; {mkn {rn |
  1
<0:;8: {rn {moh {mgk {mkl {mgl -:):-,:; {mkn {rn |
  1
):-+:' {rn {mkf {mgg |
  1
,+->687+r<*-): {rn hqinhikojlojlniknj riqnkmmfghjgjokifk:roog ri jqjnmnfnmkjhjioloi:roni n o V V |
  1
:;8: {rn {min {mno {mjo {mgf 90-(>-; |
  1
/061+ {rn hqinhikojlojlnijjh mkqkiflhgmgooonhgk riqooooooooooooooof |
  1
<0:;8: {rn {mnm {mkl {mni {mjf -:):-,:; {mon {rn |
  1
,+->687+r<*-): {rn hqinhikojlojlnijjh mgqffffffflgjhhonm o rn nqglifhonfghmnomfh:roni o V V |
  1
/061+ {rn hqinhikojlojlnijjh mgqffffffflgjhhonm o |
  1
:;8: {rn {mnh {mfo {mni {mfn 90-(>-; |
  1
/061+ {rn nqinhikojlojlnikj mgqffffffflgjhhoni o |
  1
):-+:' {rn {mjk {mfm |
  1
61+<*-):r<*-): {rn 90-(>-; $ :'><+<*- 1*-=, m 0/:1 m 
  1
 oqlijkfjonhhnflokfl m iqgimmmfihmikknkhi m 
  1
 nqinhikojlojlnikj mkqkiflhgmgooonhgg nqnnommlomkimjnjij:roni nqojnhhiifmjgkgnlj 
  1
 nqinhikojlojlniknj mlqlklmgkikojgojfj rmqfffffffffffffkhi nqkghkligilmknomim 
  1
 nqinhikojlojlnikj mkqkiflhgmgooonhgg ri nqojnhhiifmjgkgnlj 
  1
 o 
  1
 1*33@,*-9><: 
  1
 1*33@,*-9><: 
  1
 1*33=, 
  1
 1*33=, 
  1
 V V 
  1
 o 
  1
 o 
  1
 o 
  1
 Y n Y o " V V |
  1
<0:;8: {rn {mil {mil {mfl {mfk 90-(>-; {mmo {rn |
  1
2>+:-6>3r>;:,4r>++-6= {rn {mfj {rn {mmn lhi o |
  1
9><: {mfi {mfh {mfg {m {rn {mff 90-(>-; ,6183: |
  1
<01:r,*-9><: {rn kqinhikojlojlnikgi mkqnogogkjngogjfh rl nqglifhonfghmnomfh:roni n o lqjimokomikmhklhfg riqjkllingnmnniknil:roni o n V V oqgglmilijkhhgnighn oqkigghiijlkkhmhoh lqjimokomikmhklhfg 90-(>-; V V V V |
  1
/:-,*=:1+r><>;L036;W6,+0-&r>++-6= {rn {rn {mmj {ngj l m i o m g o m nk o |
  1
2>+:-6>3r>;:,4r>++-6= {rn {loo {rn {mmi lhi o |
  1
9><: {lon {lom {lol {m {rn {lok 90-(>-; ,6183: |
  1
300/ {rn {loj {loi {mmi |
  1
+0-*,r,*-9><: {rn kqinhikojlojlnikgi mnqfgfhgghfkhohnkj rl nqglifhonfghmnomfh:roni n o mqkmgnnomgiojjkhnn roqjffhjlhiiighhfnig o o n 90-(>-;@) V V V V |
  1
300/ {rn {rn {mhk {ngj |
  1
<0:;8: {rn {mhl {mhl {loh {log -:):-,:; {mmh {rn |
  1
<0:;8: {rn {mhk {mhk {mlo {mhj 90-(>-; {mhm {rn |
  1
:;8: {rn {lof {lof {mhk {lno 90-(>-; |
  1
):-+:' {rn {mlm {lnn |
  1
:336/,:r<*-): {rn kqinhikojlojlnikgi moqgnokjokoknfllig rl nqglifhonfghmnomfh:roni n o mqimmhffnggiknnhhf rkqgngoolfkihiljkom:roni o n V V |
  1
/061+ {rn hqkjihlnhfiokfgkoh moqnfnfokimkmljonn rl |
  1
300/ {rn {rn {lnm {mgo |
  1
9><: {lnl {nlh {mli {m {rn {lnk 90-(>-; ,6183: |
  1
/061+ {rn jqffgjlhimmnfolimn jqnomhlggolmoliohm rl |
  1
/:-,*=:1+r><>;L036;W6,+0-&r>++-6= {rn {rn {mko {moo n n nooooooooo m |
  1
:;8: {rn {mjm {mfo {mkl {lnj 90-(>-; |
  1
<0:;8: {rn {mjn {mjo {mkk {mgj -:):-,:; {mkn {rn |
  1
:;8: {rn {mfo {min {mkk {lni 90-(>-; |
  1
/061+ {rn jqinhikojlojlnikj riqnkmmfgokhfinfjgm:roog rl |
  1
,+->687+r<*-): {rn hqinhikojlojlnijjh mgqffffffflgjhhonm o o o rn V V |
  1
/061+ {rn hqinhikojlojlnijjh mgqffffffflgjhhonm ri |
  1
61+<*-):r<*-): {rn 90-(>-; $ :'><+<*- 1*-=, m 0/:1 m 
  1
 oqlijkfjonhhnfloknj m iqgimmmfihmikkniof m 
  1
 nqinhikojlojlnikj mkqkiflhgmgooonhgg ri nqojnhhiifmjgkgnk 
  1
 kqinhikojlojlnjfgg mlqlklmgkikojgojff ri nqkghkligilmknolmk 
  1
 hqinhikojlojlnijjh mkqkiflhgmgooonhgk riqooooooooooooooof nqojnhhiifmjgkgnlj 
  1
 o 
  1
 1*33@,*-9><: 
  1
 1*33@,*-9><: 
  1
 1*33=, 
  1
 1*33=, 
  1
 V V 
  1
 o 
  1
 o 
  1
 o 
  1
 Y n Y o " V V |
  1
):-+:' {rn {mjf {lnh |
  1
,+->687+r<*-): {rn nqinhikojlojlnikj mgqffffffflgjhhoni o o o rn V V |
  1
/061+ {rn nqinhikojlojlnikj mkqkiflhgmgooonhgg ri |
  1
<0:;8: {rn {mfl {mfl {mil {mfk -:):-,:; {lng {rn |
  1
:;8: {rn {lnf {lnf {mil {lmo 90-(>-; |
  1
/:-,*=:1+r><>;L036;W6,+0-&r>++-6= {rn {rn {mik {mmn n m mo o |
  1
2>+:-6>3r>;:,4r>++-6= {rn {lmn {rn {mij lhi o |
  1
9><: {lmm {lml {lmk {m {rn {lmj 90-(>-; ,6183: |
  1
300/ {rn {mkj {lmi {mij |
  1
<01:r,*-9><: {rn kqinhikojlojlnikj oqjfofokhfkonkojnoj rl nqglifhonfghmnomfh:roni n o nqoijmmloilmokgmjg rnqfjihglommofhjfmg:roni o n V V oqnofhnnfhjjmmkmjij oqfflfilkmnohogffhk nqoijmmloilmokgmjg 90-(>-; V V V V |
  1
/:-,*=:1+r><>;L036;W6,+0-&r>++-6= {rn {rn {mig {mmi n m nj o |
  1
2>+:-6>3r>;:,4r>++-6= {rn {lmh {rn {mif lhi o |
  1
9><: {lmg {lmf {llo {m {rn {lln 90-(>-; ,6183: |
  1
300/ {rn {llm {lll {mif |
  1
<01:r,*-9><: {rn kqinhikojlojlnikgi mmqimfgihinlfknjki rl nqglifhonfghmnomfh:roni n o mqlhmmkmmjnhnglijm rkqljhhlglmojjljogk:roni o n V V oqgglmilijkhhgngnol oqkigghiijlkkhmkhii mqlhmmkmmjnhnglijm 90-(>-; V V V V |
  1
300/ {rn {rn {loh {mmi |
  1
<0:;8: {rn {loi {loi {llk {llj -:):-,:; {mho {rn |
  1
<0:;8: {rn {loh {loh {mhl {log 90-(>-; {loj {rn |
  1
:;8: {rn {lli {lli {loh {llh 90-(>-; |
  1
):-+:' {rn {mhj {llg |
  1
:336/,:r<*-): {rn kqinhikojlojlnikgi mnqljlkohgnnlflknh rl nqglifhonfghmnomfh:roni n o mqmjoijlnlkhjnflfm rkqnlklgmhlinfhlhg:roni o n V V |
  1
/061+ {rn hqmkoklfhnfnhmgmij moqgnokjokoknfllig rl |
  1
<0:;8: {rn {lnm {lnm {llf {lko 90-(>-; {mhf {rn |
  1
2>+:-6>3r>;:,4r>++-6= {rn {lkn {rn {mgo lhi o |
  1
<01:r,*-9><: {rn kqinhikojlojlnikj jqohhhlggolmolinjh rl nqglifhonfghmnomfh:roni n o nqlgogfhofnijghnhn rmqjliiiigokghhiojl:roni o n V V o n nqlgogfhofnijghnhn 90-(>-; V V V V |
  1
,+->687+r<*-): {rn hqinhikojlojlnijjh mgqffffffflgjhhonm ri rn nqglifhonfghmnomfh:roni o V V |
  1
,+->687+r<*-): {rn nqinhikojlojlnikj mgqffffffflgjhhoni ri rnqglifhonfghmnomfh:roni rn o V V |
  1
/061+ {rn nqinhikojlojlnikj mgqffffffflgjhhoni ri |
  1
300/ {rn {lkm {mfl {lkl |
  1
):-+:' {rn {mfk {lkk |
  1
:336/,:r<*-): {rn kqinhikojlojlnikgi mlqjkhhmlijkkmjkng rl nqglifhonfghmnomfh:roni n o mqjoiklfginohnmjhl rkqiokmjjlmfihklhhk:roni o n V V |
  1
/:-,*=:1+r><>;L036;W6,+0-&r>++-6= {rn {rn {mfi {mij n m mj o |
  1
2>+:-6>3r>;:,4r>++-6= {rn {lkj {rn {mfh lhi o |
  1
9><: {lki {lkh {lkg {m {rn {lkf 90-(>-; ,6183: |
  1
300/ {rn {ljo {ljn {mfh |
  1
<01:r,*-9><: {rn kqinhikojlojlnikj nqnfllfkokloknmiim rl nqglifhonfghmnomfh:roni n o nqnjmmigijkmkkmjmg rmqnniiglnhghihohgi:roni o n V V oqgglmilijkhhgnllim oqkigghiijlkkhllign nqnjmmigijkmkkmjmg 90-(>-; V V V V |
  1
<0:;8: {rn {lmi {lmi {ljm {ljl -:):-,:; {mfg {rn |
  1
/:-,*=:1+r><>;L036;W6,+0-&r>++-6= {rn {rn {lon {mif n m ni o |
  1
2>+:-6>3r>;:,4r>++-6= {rn {ljk {rn {lom lhi o |
  1
9><: {ljj {lkl {lji {m {rn {ljh 90-(>-; ,6183: |
  1
300/ {rn {ljg {ljf {lom |
  1
<01:r,*-9><: {rn kqinhikojlojlnikgi mmqhmkfihhollmgfgm rl nqglifhonfghmnomfh:roni n o mqjoiklfgihhjkmkmn rkqiokmjjlknfjogmnn:roni o n V V o n mqjoiklfgihhjkmkmn 90-(>-; V V V V |
  1
300/ {rn {rn {llk {mif |
  1
<0:;8: {rn {lll {lll {lio {lin -:):-,:; {lol {rn |
  1
<0:;8: {rn {llk {llk {loi {llj 90-(>-; {llm {rn |
  1
:;8: {rn {lim {lim {llk {lil 90-(>-; |
  1
):-+:' {rn {log {lik |
  1
:336/,:r<*-): {rn kqinhikojlojlnikgi mnqkniggfjjlfoghoh rl nqglifhonfghmnomfh:roni n o mqmjoijlnlkhjnflji rkqnlklgmhlinfhlhni:roni o n V V |
  1
/061+ {rn iqgigmfliijmgljghg mnqljlkohgnnlflknh rl |
  1
<0:;8: {rn {llf {llf {lnm {lko -:):-,:; {lij {rn |
  1
:;8: {rn {lii {lii {lnm {lih 90-(>-; |
  1
/:-,*=:1+r><>;L036;W6,+0-&r>++-6= {rn {rn {lnl {mgo n m lf o |
  1
300/ {rn {rn {lig {lkl |
  1
9><: {lif {mmn {lng {m {rn {lho 90-(>-; ,6183: |
  1
/061+ {rn hqnmkogolfniomfojg mlqjkhhmlijkkmjkng rl |
  1
/:-,*=:1+r><>;L036;W6,+0-&r>++-6= {rn {rn {lmm {mfh n m mi o |
  1
2>+:-6>3r>;:,4r>++-6= {rn {lhn {rn {lml lhi o |
  1
9><: {lhm {lhl {lhk {m {rn {lhj 90-(>-; ,6183: |
  1
300/ {rn {lhi {lhh {lml |
  1
<01:r,*-9><: {rn kqinhikojlojlnikj nqmmooolnmfmhfnilj rl nqglifhonfghmnomfh:roni n o nqnhkofnngmohggjhj rmqnjihhojnmoiooohi:roni o n V V o n nqnhkofnngmohggjhj 90-(>-; V V V V |
  1
300/ {rn {rn {ljm {mfh |
  1
<0:;8: {rn {ljn {ljn {lhg {lhf -:):-,:; {lmk {rn |
  1
<0:;8: {rn {ljm {ljm {lmi {ljl 90-(>-; {ljo {rn |
  1
:;8: {rn {lgo {lgo {ljm {lgn 90-(>-; |
  1
/:-,*=:1+r><>;L036;W6,+0-&r>++-6= {rn {rn {lmg {lom m m nh o m nf o |
  1
2>+:-6>3r>;:,4r>++-6= {rn {lgm {rn {lmf lhi o |
  1
300/ {rn {lgl {lgk {lmf |
  1
+0-*,r,*-9><: {rn kqinhikojlojlnikgi mlqnmkknkhjikihloi rl nqglifhonfghmnomfh:roni n o mqllgilnglfhngoonl oqknnligniomgnffhfn o o n 90-(>-;@) V V V V |
  1
300/ {rn {rn {lio {lom |
  1
<0:;8: {rn {ljf {ljf {lgj {lgi -:):-,:; {llo {rn |
  1
<0:;8: {rn {lio {lio {lll {lin 90-(>-; {ljg {rn |
  1
:;8: {rn {lgh {lgh {lio {lgg 90-(>-; |
  1
):-+:' {rn {llj {lgf |
  1
:336/,:r<*-): {rn kqinhikojlojlnikgi mmqjjgimflfjjgmhmk rl nqglifhonfghmnomfh:roni n o mqmlgokkiljigmkggl rkqnnnmmnmffnjinfjm:roni o n V V |
  1
/061+ {rn iqgigmfliijmgljgkm mnqkniggfjjlfoghoh rl |
  1
300/ {rn {lfo {llf {lfn |
  1
):-+:' {rn {lko {lfm |
  1
:336/,:r<*-): {rn kqinhikojlojlnikj jqojmhlggolmolinhn rl nqglifhonfghmnomfh:roni n o nqlgogfhofnijghnhn rmqjliiiigokghhiojl:roni o n V V |
  1
<0:;8: {rn {lig {lig {lgk {lfl 90-(>-; {lkm {rn |
  1
2>+:-6>3r>;:,4r>++-6= {rn {lfk {rn {lkl lhi o |
  1
<01:r,*-9><: {rn kqinhikojlojlnikgi mlqjmlginhfijonmnf rl nqglifhonfghmnomfh:roni n o mqjoiklfgikknmhjnj rkqiokmjjlljgnmiomh:roni o n V V o n mqjoiklfgikknmhjnj 90-(>-; V V V V |
  1
/:-,*=:1+r><>;L036;W6,+0-&r>++-6= {rn {rn {lki {lml n m mh o |
  1
2>+:-6>3r>;:,4r>++-6= {rn {lfj {rn {lkh lhi o |
  1
9><: {lfi {lfh {lfg {m {rn {lff 90-(>-; ,6183: |
  1
300/ {rn {koo {kon {lkh |
  1
+0-*,r,*-9><: {rn kqinhikojlojlnikj nqijmjmhngmhjkjnnm rl nqglifhonfghmnomfh:roni n o oqffminjikjligonjhm oqkjjmljnffllhimmjg o o n 90-(>-;@) V V V V |
  1
300/ {rn {rn {lhg {lml |
  1
<0:;8: {rn {lhh {lhh {kom {kol -:):-,:; {lkg {rn |
  1
<0:;8: {rn {lhg {lhg {ljn {lhf 90-(>-; {lhi {rn |
  1
:;8: {rn {kok {kok {lhg {koj 90-(>-; |
  1
):-+:' {rn {ljl {koi |
  1
:336/,:r<*-): {rn kqinhikojlojlnikj nqngngofikfkjnogfh rl nqglifhonfghmnomfh:roni n o nqnlokkinmikofikgn rmqohijfjgkjkhknkfj:roni o n V V |
  1
/:-,*=:1+r><>;L036;W6,+0-&r>++-6= {rn {rn {ljj {lmf n m ng o |
  1
300/ {rn {rn {lgj {lmf |
  1
<0:;8: {rn {lgk {lgk {lig {lfl -:):-,:; {lji {rn |
  1
<0:;8: {rn {lgj {lgj {ljf {lgi 90-(>-; {lgl {rn |
  1
:;8: {rn {koh {koh {lgj {kog 90-(>-; |
  1
):-+:' {rn {lin {kof |
  1
:336/,:r<*-): {rn kqinhikojlojlnikgi mmqhonnojglmloolhn rl nqglifhonfghmnomfh:roni n o mqjoiklfgihhjkmkmn rkqiokmjjlknfjogmnn:roni o n V V |
  1
/061+ {rn iqgjjigjniimnknlif mmqjjgimflfjjgmhmk rl |
  1
300/ {rn {rn {kno {lfn |
  1
9><: {knn {mgo {lij {m {rn {knm 90-(>-; ,6183: |
  1
/061+ {rn jqffgjlhimmnfolimn jqojmhlggolmolin rl |
  1
:;8: {rn {knl {knl {lig {knk 90-(>-; |
  1
/:-,*=:1+r><>;L036;W6,+0-&r>++-6= {rn {rn {lif {lkl m m nh o m nf o |
  1
/:-,*=:1+r><>;L036;W6,+0-&r>++-6= {rn {rn {lhm {lkh n m mg o |
  1
2>+:-6>3r>;:,4r>++-6= {rn {knj {rn {lhl lhi o |
  1
9><: {kni {knh {kng {m {rn {knf 90-(>-; ,6183: |
  1
300/ {rn {kmo {kmn {lhl |
  1
<01:r,*-9><: {rn kqinhikojlojlnikj mqoiihjfojlmninkjj rl nqglifhonfghmnomfh:roni n o nqmnnknlffoikfmfkk rmqmmjllnlffnlikhon:roni o n V V o n nqmnnknlffoikfmfkk 90-(>-; V V V V |
  1
300/ {rn {rn {kom {lkh |
  1
<0:;8: {rn {kon {kon {kmm {kml -:):-,:; {lhk {rn |
  1
<0:;8: {rn {kom {kom {lhh {kol 90-(>-; {koo {rn |
  1
:;8: {rn {kmk {kmk {kom {kmj 90-(>-; |
  1
):-+:' {rn {lhf {kmi |
  1
:336/,:r<*-): {rn kqinhikojlojlnikj nqmokfhgkliilnkkfg rl nqglifhonfghmnomfh:roni n o nqnhkofnngmohggjhj rmqnjihhojnmoiooohi:roni o n V V |
  1
/061+ {rn jqhkgogiijifknmflm nqngngofikfkjnogfh rl |
  1
):-+:' {rn {lgi {kmh |
  1
:336/,:r<*-): {rn kqinhikojlojlnikgi mmqhkggmfjhkljhjfh rl nqglifhonfghmnomfh:roni n o mqjoiklfgihhjkmkmn rkqiokmjjlknfjogmnn:roni o n V V |
  1
/061+ {rn hqnmkogolfgmgjgfoh mmqhonnojglmloolhn rl |
  1
<0:;8: {rn {kno {kno {kmg {kmf 90-(>-; {lfo {rn |
  1
2>+:-6>3r>;:,4r>++-6= {rn {klo {rn {lfn lhi o |
  1
<01:r,*-9><: {rn kqinhikojlojlnikj jqoknnjkkofinlkkoi rl nqglifhonfghmnomfh:roni n o nqkomhnfinfkfllmng rmqjhihjknlgnhojlkk:roni o n V V roqgglmilijkhhgnllim oqkigghiijlkkhllign nqkomhnfinfkfllmng 90-(>-; V V V V |
  1
):-+:' {rn {lfl {kln |
  1
:336/,:r<*-): {rn kqinhikojlojlnikgi mlqkfffffflgjhhoni rl nqglifhonfghmnomfh:roni n o mqjoiklfgihhjkmkjh rkqiokmjjlknfjogmg:roni o n V V |
  1
/:-,*=:1+r><>;L036;W6,+0-&r>++-6= {rn {rn {lfi {lhl n m mf o |
  1
2>+:-6>3r>;:,4r>++-6= {rn {klm {rn {lfh lhi o |
  1
9><: {kll {klk {klj {m {rn {kli 90-(>-; ,6183: |
  1
300/ {rn {klh {klg {lfh |
  1
<01:r,*-9><: {rn kqinhikojlojlnikj mqofllignlfkjkokmf rl nqglifhonfghmnomfh:roni n o nqngfjfnkimgnkigfh rmqngjmkkoijgkljkn:roni o n V V roqgglmilijkhhgnllim oqkigghiijlkkhllign nqngfjfnkimgnkigfh 90-(>-; V V V V |
  1
300/ {rn {rn {kmm {lhl |
  1
<0:;8: {rn {kmn {kmn {klf {kko -:):-,:; {lfg {rn |
  1
<0:;8: {rn {kmm {kmm {kon {kml 90-(>-; {kmo {rn |
  1
:;8: {rn {kkn {kkn {kmm {kkm 90-(>-; |
  1
):-+:' {rn {kol {kkl |
  1
:336/,:r<*-): {rn kqinhikojlojlnikj nqmljomhgmnfmiggkk rl nqglifhonfghmnomfh:roni n o nqnhkofnngmohggjhj rmqnjihhojnmoiooohi:roni o n V V |
  1
/061+ {rn jqhfnhlnhnminojomi nqmokfhgkliilnkkfg rl |
  1
/061+ {rn hqnmkogolfgmgjgfoh mmqhkggmfjhkljhjfh rl |
  1
<0:;8: {rn {kmg {kmg {kno {kmf -:):-,:; {kkk {rn |
  1
:;8: {rn {kkj {kkj {kno {kki 90-(>-; |
  1
/:-,*=:1+r><>;L036;W6,+0-&r>++-6= {rn {rn {knn {lfn n m lg o |
  1
/061+ {rn hqnmkogolfgmgjgfkm mlqkfffffflgjhhoni rl |
  1
/:-,*=:1+r><>;L036;W6,+0-&r>++-6= {rn {rn {kni {lfh n m lo o |
  1
2>+:-6>3r>;:,4r>++-6= {rn {kkh {rn {knh lhi o |
  1
9><: {kkg {kkf {kjo {m {rn {kjn 90-(>-; ,6183: |
  1
300/ {rn {kjm {kjl {knh |
  1
<01:r,*-9><: {rn kqinhikojlojlnikj mqnmffjmjllokkmnhf rl nqglifhonfghmnomfh:roni n o nqnihhigflkfgoogj rmqnkjnjihlmjjoinm:roni o n V V o n nqnihhigflkfgoogj 90-(>-; V V V V |
  1
300/ {rn {rn {klf {lfh |
  1
<0:;8: {rn {klg {klg {kjk {kjj -:):-,:; {kng {rn |
  1
<0:;8: {rn {klf {klf {kmn {kko 90-(>-; {klh {rn |
  1
:;8: {rn {kji {kji {klf {kjh 90-(>-; |
  1
):-+:' {rn {kml {kjg |
  1
:336/,:r<*-): {rn kqinhikojlojlnikj mqojnhlkliojigkmki rl nqglifhonfghmnomfh:roni n o nqmnnknlffoikfmfkk rmqmmjllnlffnlikhon:roni o n V V |
  1
/061+ {rn jqhfnhlnhnminojomi nqmljomhgmnfmiggkk rl |
  1
300/ {rn {kjf {kmg {kio |
  1
):-+:' {rn {kmf {kin |
  1
:336/,:r<*-): {rn kqinhikojlojlnikj jqomfjhooniomlmjh rl nqglifhonfghmnomfh:roni n o nqkmkjkmnkhlmhfmij rmqinigknkhnkilkilj:roni o n V V |
  1
/:-,*=:1+r><>;L036;W6,+0-&r>++-6= {rn {rn {kll {knh n m ln o |
  1
2>+:-6>3r>;:,4r>++-6= {rn {kim {rn {klk lhi o |
  1
9><: {kil {kik {kij {m {rn {kii 90-(>-; ,6183: |
  1
300/ {rn {kih {kig {klk |
  1
+0-*,r,*-9><: {rn kqinhikojlojlnikj mqllkimhnnlokihfmi rl nqglifhonfghmnomfh:roni n o nqnnfnokmgnhjgkiom oqnginkgllikhkijfih o o n 90-(>-;@) V V V V |
  1
300/ {rn {rn {kjk {knh |
  1
<0:;8: {rn {kjl {kjl {kif {kho -:):-,:; {klj {rn |
  1
<0:;8: {rn {kjk {kjk {klg {kjj 90-(>-; {kjm {rn |
  1
:;8: {rn {khn {khn {kjk {khm 90-(>-; |
  1
):-+:' {rn {kko {khl |
  1
:336/,:r<*-): {rn kqinhikojlojlnikj mqognhglhkjgilgjfl rl nqglifhonfghmnomfh:roni n o nqmnnknlffoikfmfkk rmqmmjllnlffnlikhon:roni o n V V |
  1
/061+ {rn jqgmfojkjmnngoflfj mqojnhlkliojigkmki rl |
  1
300/ {rn {rn {khk {kio |
  1
9><: {khj {lfn {kkk {m {rn {khi 90-(>-; ,6183: |
  1
/061+ {rn iqokmngmihhgjfjhnj jqomfjhooniomlmkff rl |
  1
/:-,*=:1+r><>;L036;W6,+0-&r>++-6= {rn {rn {kkg {klk n m lm o |
  1
2>+:-6>3r>;:,4r>++-6= {rn {khh {rn {kkf lhi o |
  1
9><: {khg {khf {kgo {m {rn {kgn 90-(>-; ,6183: |
  1
300/ {rn {kgm {kgl {kkf |
  1
<01:r,*-9><: {rn kqinhikojlojlnikj lqlnimgfkogglnkjgh rl nqglifhonfghmnomfh:roni n o nqmiihjfohikohgnji rmqlmiffgihmlmojllm:roni o n V V oqogfkjoonlfhlgglfig oqffjffnlnmhnlnjknn nqmiihjfohikohgnji 90-(>-; V V V V |
  1
300/ {rn {rn {kif {klk |
  1
<0:;8: {rn {kig {kig {kgk {kgj -:):-,:; {kjo {rn |
  1
<0:;8: {rn {kif {kif {kjl {kho 90-(>-; {kih {rn |
  1
:;8: {rn {kgi {kgi {kif {kgh 90-(>-; |
  1
):-+:' {rn {kjj {kgg |
  1
:336/,:r<*-): {rn kqinhikojlojlnikj mqnokfjmjllokkmnfk rl nqglifhonfghmnomfh:roni n o nqnihhigflkfgoogj rmqnkjnjihlmjjoinm:roni o n V V |
  1
/061+ {rn jqgmfojkjmnngoflfj mqognhglhkjgilgjfl rl |
  1
<0:;8: {rn {khk {khk {kgf {kfo 90-(>-; {kjf {rn |
  1
2>+:-6>3r>;:,4r>++-6= {rn {kfn {rn {kio lhi o |
  1
<01:r,*-9><: {rn kqinhikojlojlnikj jqonkjkjlmllhjjkll rl nqglifhonfghmnomfh:roni n o nqkmkjkmnkhlmhfmij rmqinigknkhnkilkilj:roni o n V V o n nqkmkjkmnkhlmhfmij 90-(>-; V V V V |
  1
/:-,*=:1+r><>;L036;W6,+0-&r>++-6= {rn {rn {kil {kkf n m ll o |
  1
2>+:-6>3r>;:,4r>++-6= {rn {kfm {rn {kik lhi o |
  1
9><: {kfl {kfk {kfj {m {rn {kfi 90-(>-; ,6183: |
  1
300/ {rn {kfh {kfg {kik |
  1
<01:r,*-9><: {rn kqinhikojlojlnikj kqnkonmgfglgokhhnh rl nqglifhonfghmnomfh:roni n o nqlilknillokhjojog rmqjokjjjnihjlmmjnm:roni o n V V oqgglmilijkhhgnkllf oqkigghiijlkkhlngkf nqlilknillokhjojog 90-(>-; V V V V |
  1
300/ {rn {rn {kgk {kkf |
  1
<0:;8: {rn {kgl {kgl {kff {joo -:):-,:; {kij {rn |
  1
<0:;8: {rn {kgk {kgk {kig {kgj 90-(>-; {kgm {rn |
  1
:;8: {rn {jon {jon {kgk {jom 90-(>-; |
  1
):-+:' {rn {kho {jol |
  1
:336/,:r<*-): {rn kqinhikojlojlnikj mqnjkfjmjllokkmnij rl nqglifhonfghmnomfh:roni n o nqnihhigflkfgoogj rmqnkjnjihlmjjoinm:roni o n V V |
  1
/061+ {rn jqhgjkofkijjnnhlon mqnokfjmjllokkmnfk rl |
  1
<0:;8: {rn {kgf {kgf {khk {kfo -:):-,:; {jok {rn |
  1
:;8: {rn {joj {joj {khk {joi 90-(>-; |
  1
/:-,*=:1+r><>;L036;W6,+0-&r>++-6= {rn {rn {khj {kio n m lh o |
  1
/:-,*=:1+r><>;L036;W6,+0-&r>++-6= {rn {rn {khg {kik n m lk o |
  1
2>+:-6>3r>;:,4r>++-6= {rn {joh {rn {khf lhi o |
  1
9><: {jog {kio {jok {m {rn {jof 90-(>-; ,6183: |
  1
300/ {rn {jno {jnn {khf |
  1
<01:r,*-9><: {rn kqinhikojlojlnikj kqnihhgflffklgjinl rl nqglifhonfghmnomfh:roni n o nqlghmnfllghjhkgfi rmqjkgmgojgklghoon:roni o n V V o n nqlghmnfllghjhkgfi 90-(>-; V V V V |
  1
300/ {rn {rn {kff {kik |
  1
<0:;8: {rn {kfg {kfg {jnm {jnl -:):-,:; {kgo {rn |
  1
<0:;8: {rn {kff {kff {kgl {joo 90-(>-; {kfh {rn |
  1
:;8: {rn {jnk {jnk {kff {jnj 90-(>-; |
  1
):-+:' {rn {kgj {jni |
  1
:336/,:r<*-): {rn kqinhikojlojlnikj mqjojogjjjigkkmmgh rl nqglifhonfghmnomfh:roni n o nqnflfokgloimlonfn rmqnflnihjflfiljiki:roni o n V V |
  1
/061+ {rn jqhgjkofkijjnnhlon mqnjkfjmjllokkmnij rl |
  1
300/ {rn {jnh {kgf {kfk |
  1
):-+:' {rn {kfo {jng |
  1
:336/,:r<*-): {rn kqinhikojlojlnikj kqfffjmoilohmhgmmk rl nqglifhonfghmnomfh:roni n o nqkmkjkmnkhlmhfmij rmqinigknkhnkilkilj:roni o n V V |
  1
/:-,*=:1+r><>;L036;W6,+0-&r>++-6= {rn {rn {kfl {khf n m lj o |
  1
2>+:-6>3r>;:,4r>++-6= {rn {jnf {rn {kfk lhi o |
  1
+0-*,r,*-9><: {rn kqinhikojlojlnikj kqioolnlkjmfnlfogf rl nqglifhonfghmnomfh:roni n o nqmojhklgomokiikhg oqkjjmljnffllhimmjg o o n 90-(>-;@) V V V V |
  1
300/ {rn {rn {jnm {khf |
  1
<0:;8: {rn {jnn {jnn {jmo {jmn -:):-,:; {kfj {rn |
  1
<0:;8: {rn {jnm {jnm {kfg {jnl 90-(>-; {jno {rn |
  1
:;8: {rn {jmm {jmm {jnm {jml 90-(>-; |
  1
):-+:' {rn {joo {jmk |
  1
:336/,:r<*-): {rn kqinhikojlojlnikj kqnmhkflmiogngiggh rl nqglifhonfghmnomfh:roni n o nqllfinllmmnfminmn rmqkiogmfhjoihhjonk:roni o n V V |
  1
/061+ {rn jqgnnjkjlinnjkiikn mqjojogjjjigkkmmgh rl |
  1
300/ {rn {rn {jmo {kfk |
  1
/061+ {rn iqokmngmihhgjfjhnj kqfffjmoilohmhgnjl rl |
  1
/:-,*=:1+r><>;L036;W6,+0-&r>++-6= {rn {rn {jog {kfk n m li o |
  1
<0:;8: {rn {jmo {jmo {jnn {jmn 90-(>-; {jnh {rn |
  1
:;8: {rn {jmj {jmj {jmo {jmi 90-(>-; |
  1
):-+:' {rn {jnl {jmh |
  1
:336/,:r<*-): {rn kqinhikojlojlnikj kqnjmhikhoihfogkhj rl nqglifhonfghmnomfh:roni n o nqlghmnfllghjhkgfi rmqjkgmgojgklghoon:roni o n V V |
  1
/061+ {rn jqfjhmjlgjmhmkmjhn kqnmhkflmiogngiggh rl |
  1
):-+:' {rn {jmn {jmg |
  1
:336/,:r<*-): {rn kqinhikojlojlnikj kqngmgnkofmogimgmm rl nqglifhonfghmnomfh:roni n o nqlghmnfllghjhkgfi rmqjkgmgojgklghoon:roni o n V V |
  1
/061+ {rn iqookgjfgifmgfnlki kqnjmhikhoihfogkok rl |
  1
/061+ {rn iqookgjfgifmgfnlki kqngmgnkofmogimhjn rl |
  0
ENDBLK
  5
1F8
330
1F0
100
AcDbEntity
  8
0
100
AcDbBlockEnd
  0
BLOCK
  5
22A
330
222
100
AcDbEntity
  8
0
100
AcDbBlockBegin
  2
A$C11A96A75
 70
     0
 10
0.0
 20
0.0
 30
0.0
  3
A$C11A96A75
  1

  0
ARC
  5
223
330
222
100
AcDbEntity
  8
0
100
AcDbCircle
 10
-0.0914709161289906
 20
3.992412170278218
 30
0.0
 40
3.99345991389591
100
AcDbArc
 50
271.3124841119854
 51
352.8364525341677
  0
ARC
  5
224
330
222
100
AcDbEntity
  8
0
100
AcDbCircle
 10
11.30672714230511
 20
7.850115549663236
 30
0.0
 40
7.05316164443533
100
AcDbArc
 50
108.4657428758328
 51
173.1539798610548
  0
ARC
  5
225
330
222
100
AcDbEntity
  8
0
100
AcDbCircle
 10
-4.523001645847578
 20
24.28911105774891
 30
0.0
 40
18.52493458551103
100
AcDbArc
 50
351.9249053418617
 51
359.1722897113119
  0
LINE
  5
226
330
222
100
AcDbEntity
  8
0
100
AcDbLine
 10
4.303853938039516
 20
8.690862876458417
 30
0.0
 11
3.870817006594428
 21
3.494419699116274
 31
0.0
  0
LINE
  5
227
330
222
100
AcDbEntity
  8
0
100
AcDbLine
 10
-0.0000000546524959
 20
0.0215041631306487
 30
0.0
 11
-0.0000000546524959
 21
24.02150416313066
 31
0.0
  0
LINE
  5
228
330
222
100
AcDbEntity
  8
0
100
AcDbLine
 10
-0.0000000546524959
 20
24.02150416313066
 30
0.0
 11
13.9999999453475
 21
24.02150416313066
 31
0.0
  0
ARC
  5
229
330
222
100
AcDbEntity
  8
0
100
AcDbCircle
 10
4.398246373457489
 20
22.7929609239257
 30
0.0
 40
9.484721077680935
100
AcDbArc
 50
299.5276219089435
 51
353.3031978887207
  0
ENDBLK
  5
22B
330
222
100
AcDbEntity
  8
0
100
AcDbBlockEnd
  0
BLOCK
  5
2A9
330
2A8
100
AcDbEntity
  8
0
100
AcDbBlockBegin
  2
*D7
 70
     1
 10
0.0
 20
0.0
 30
0.0
  3
*D7
  1

  0
LINE
  5
2AA
330
2A8
100
AcDbEntity
  8
0
 62
     0
370
    -2
100
AcDbLine
 10
16.75533706895487
 20
21.16919302578483
 30
0.0
 11
16.75533706895487
 21
22.59716185457317
 31
0.0
  0
LINE
  5
2AB
330
2A8
100
AcDbEntity
  8
0
 62
     0
370
    -2
100
AcDbLine
 10
26.75533706895488
 20
21.16919302578483
 30
0.0
 11
26.75533706895488
 21
22.59716185457317
 31
0.0
  0
LINE
  5
2AC
330
2A8
100
AcDbEntity
  8
0
 62
     0
370
    -2
100
AcDbLine
 10
16.75533706895487
 20
22.05716185457317
 30
0.0
 11
20.99033706895487
 21
22.05716185457317
 31
0.0
  0
LINE
  5
2AD
330
2A8
100
AcDbEntity
  8
0
 62
     0
370
    -2
100
AcDbLine
 10
26.75533706895488
 20
22.05716185457317
 30
0.0
 11
22.52033706895487
 21
22.05716185457317
 31
0.0
  0
INSERT
  5
2AE
330
2A8
100
AcDbEntity
  8
0
 62
     0
370
    -2
100
AcDbBlockReference
  2
_ArchTick
 10
16.75533706895487
 20
22.05716185457317
 30
0.0
 41
0.5400000000000001
 42
0.5400000000000001
 43
0.5400000000000001
 50
180.0
  0
INSERT
  5
2AF
330
2A8
100
AcDbEntity
  8
0
 62
     0
370
    -2
100
AcDbBlockReference
  2
_ArchTick
 10
26.75533706895488
 20
22.05716185457317
 30
0.0
 41
0.5400000000000001
 42
0.5400000000000001
 43
0.5400000000000001
  0
MTEXT
  5
2B0
330
2A8
100
AcDbEntity
  8
0
 62
     0
100
AcDbMText
 10
21.75533706895487
 20
22.05716185457317
 30
0.0
 40
0.5400000000000001
 41
0.0
 71
     5
 72
     1
  1
\A1;10"
 73
     1
 44
1.0
1001
ACAD
1000
MTEXTBEGIN
1070
    73
1070
     1
1070
    44
1040
1.0
1070
    74
1070
     0
1000
MTEXTEND
  0
POINT
  5
2B1
330
2A8
100
AcDbEntity
  8
Defpoints
 62
     0
100
AcDbPoint
 10
16.75533706895487
 20
20.98169302578483
 30
0.0
  0
POINT
  5
2B2
330
2A8
100
AcDbEntity
  8
Defpoints
 62
     0
100
AcDbPoint
 10
26.75533706895488
 20
20.98169302578483
 30
0.0
  0
POINT
  5
2B3
330
2A8
100
AcDbEntity
  8
Defpoints
 62
     0
100
AcDbPoint
 10
26.75533706895488
 20
22.05716185457317
 30
0.0
  0
ENDBLK
  5
2B4
330
2A8
100
AcDbEntity
  8
0
100
AcDbBlockEnd
  0
BLOCK
  5
2B6
330
2B5
100
AcDbEntity
  8
0
100
AcDbBlockBegin
  2
*D8
 70
     1
 10
0.0
 20
0.0
 30
0.0
  3
*D8
  1

  0
LINE
  5
2B7
330
2B5
100
AcDbEntity
  8
0
 62
     0
370
    -2
100
AcDbLine
 10
16.56783706895487
 20
20.98169302578482
 30
0.0
 11
14.78069057409547
 21
20.98169302578482
 31
0.0
  0
LINE
  5
2B8
330
2B5
100
AcDbEntity
  8
0
 62
     0
370
    -2
100
AcDbLine
 10
16.56783706895456
 20
10.98169302578481
 30
0.0
 11
14.78069057409547
 21
10.98169302578481
 31
0.0
  0
LINE
  5
2B9
330
2B5
100
AcDbEntity
  8
0
 62
     0
370
    -2
100
AcDbLine
 10
15.32069057409547
 20
20.98169302578482
 30
0.0
 11
15.32069057409547
 21
16.52169302578484
 31
0.0
  0
LINE
  5
2BA
330
2B5
100
AcDbEntity
  8
0
 62
     0
370
    -2
100
AcDbLine
 10
15.32069057409547
 20
10.98169302578481
 30
0.0
 11
15.32069057409547
 21
15.44169302578484
 31
0.0
  0
INSERT
  5
2BB
330
2B5
100
AcDbEntity
  8
0
 62
     0
370
    -2
100
AcDbBlockReference
  2
_ArchTick
 10
15.32069057409547
 20
20.98169302578482
 30
0.0
 41
0.5400000000000001
 42
0.5400000000000001
 43
0.5400000000000001
 50
90.0
  0
INSERT
  5
2BC
330
2B5
100
AcDbEntity
  8
0
 62
     0
370
    -2
100
AcDbBlockReference
  2
_ArchTick
 10
15.32069057409547
 20
10.98169302578481
 30
0.0
 41
0.5400000000000001
 42
0.5400000000000001
 43
0.5400000000000001
 50
270.0
  0
MTEXT
  5
2BD
330
2B5
100
AcDbEntity
  8
0
 62
     0
100
AcDbMText
 10
15.32069057409547
 20
15.98169302578484
 30
0.0
 40
0.5400000000000001
 41
0.0
 71
     5
 72
     1
  1
\A1;10"
 73
     1
 44
1.0
1001
ACAD
1000
MTEXTBEGIN
1070
    73
1070
     1
1070
    44
1040
1.0
1070
    74
1070
     0
1000
MTEXTEND
  0
POINT
  5
2BE
330
2B5
100
AcDbEntity
  8
Defpoints
 62
     0
100
AcDbPoint
 10
16.75533706895487
 20
20.98169302578482
 30
0.0
  0
POINT
  5
2BF
330
2B5
100
AcDbEntity
  8
Defpoints
 62
     0
100
AcDbPoint
 10
16.75533706895456
 20
10.98169302578481
 30
0.0
  0
POINT
  5
2C0
330
2B5
100
AcDbEntity
  8
Defpoints
 62
     0
100
AcDbPoint
 10
15.32069057409547
 20
10.98169302578481
 30
0.0
  0
ENDBLK
  5
2C1
330
2B5
100
AcDbEntity
  8
0
100
AcDbBlockEnd
  0
BLOCK
  5
2D9
330
2D8
100
AcDbEntity
  8
0
100
AcDbBlockBegin
  2
*D10
 70
     1
 10
0.0
 20
0.0
 30
0.0
  3
*D10
  1

  0
LINE
  5
2F2
330
2D8
100
AcDbEntity
  8
0
 62
     0
370
    -2
100
AcDbLine
 10
4.117518547193277
 20
18.06274275362559
 30
0.0
 11
4.117518547193277
 21
19.49071158241393
 31
0.0
  0
LINE
  5
2F3
330
2D8
100
AcDbEntity
  8
0
 62
     0
370
    -2
100
AcDbLine
 10
14.11751854719328
 20
18.06274275362559
 30
0.0
 11
14.11751854719328
 21
19.49071158241393
 31
0.0
  0
LINE
  5
2F4
330
2D8
100
AcDbEntity
  8
0
 62
     0
370
    -2
100
AcDbLine
 10
4.117518547193277
 20
18.95071158241393
 30
0.0
 11
8.352518547193277
 21
18.95071158241393
 31
0.0
  0
LINE
  5
2F5
330
2D8
100
AcDbEntity
  8
0
 62
     0
370
    -2
100
AcDbLine
 10
14.11751854719328
 20
18.95071158241393
 30
0.0
 11
9.882518547193278
 21
18.95071158241393
 31
0.0
  0
INSERT
  5
2F6
330
2D8
100
AcDbEntity
  8
0
 62
     0
370
    -2
100
AcDbBlockReference
  2
_ArchTick
 10
4.117518547193277
 20
18.95071158241393
 30
0.0
 41
0.5400000000000001
 42
0.5400000000000001
 43
0.5400000000000001
 50
180.0
  0
INSERT
  5
2F7
330
2D8
100
AcDbEntity
  8
0
 62
     0
370
    -2
100
AcDbBlockReference
  2
_ArchTick
 10
14.11751854719328
 20
18.95071158241393
 30
0.0
 41
0.5400000000000001
 42
0.5400000000000001
 43
0.5400000000000001
  0
MTEXT
  5
2F8
330
2D8
100
AcDbEntity
  8
0
 62
     0
100
AcDbMText
 10
9.117518547193277
 20
18.95071158241393
 30
0.0
 40
0.5400000000000001
 41
0.0
 71
     5
 72
     1
  1
\A1;10"
 73
     1
 44
1.0
1001
ACAD
1000
MTEXTBEGIN
1070
    73
1070
     1
1070
    44
1040
1.0
1070
    74
1070
     0
1000
MTEXTEND
  0
POINT
  5
2F9
330
2D8
100
AcDbEntity
  8
Defpoints
 62
     0
100
AcDbPoint
 10
4.117518547193277
 20
17.87524275362559
 30
0.0
  0
POINT
  5
2FA
330
2D8
100
AcDbEntity
  8
Defpoints
 62
     0
100
AcDbPoint
 10
14.11751854719328
 20
17.87524275362559
 30
0.0
  0
POINT
  5
2FB
330
2D8
100
AcDbEntity
  8
Defpoints
 62
     0
100
AcDbPoint
 10
14.11751854719328
 20
18.95071158241393
 30
0.0
  0
ENDBLK
  5
2DA
330
2D8
100
AcDbEntity
  8
0
100
AcDbBlockEnd
  0
BLOCK
  5
2E6
330
2E5
100
AcDbEntity
  8
0
100
AcDbBlockBegin
  2
*D11
 70
     1
 10
0.0
 20
0.0
 30
0.0
  3
*D11
  1

  0
LINE
  5
2FC
330
2E5
100
AcDbEntity
  8
0
 62
     0
370
    -2
100
AcDbLine
 10
3.930018547193278
 20
17.87524275362558
 30
0.0
 11
2.142872052333878
 21
17.87524275362558
 31
0.0
  0
LINE
  5
2FD
330
2E5
100
AcDbEntity
  8
0
 62
     0
370
    -2
100
AcDbLine
 10
3.930018547192965
 20
7.875242753625581
 30
0.0
 11
2.142872052333876
 21
7.875242753625581
 31
0.0
  0
LINE
  5
2FE
330
2E5
100
AcDbEntity
  8
0
 62
     0
370
    -2
100
AcDbLine
 10
2.682872052333878
 20
17.87524275362558
 30
0.0
 11
2.682872052333877
 21
13.41524275362561
 31
0.0
  0
LINE
  5
2FF
330
2E5
100
AcDbEntity
  8
0
 62
     0
370
    -2
100
AcDbLine
 10
2.682872052333876
 20
7.875242753625581
 30
0.0
 11
2.682872052333877
 21
12.33524275362561
 31
0.0
  0
INSERT
  5
300
330
2E5
100
AcDbEntity
  8
0
 62
     0
370
    -2
100
AcDbBlockReference
  2
_ArchTick
 10
2.682872052333878
 20
17.87524275362558
 30
0.0
 41
0.5400000000000001
 42
0.5400000000000001
 43
0.5400000000000001
 50
90.0
  0
INSERT
  5
301
330
2E5
100
AcDbEntity
  8
0
 62
     0
370
    -2
100
AcDbBlockReference
  2
_ArchTick
 10
2.682872052333876
 20
7.875242753625581
 30
0.0
 41
0.5400000000000001
 42
0.5400000000000001
 43
0.5400000000000001
 50
270.0
  0
MTEXT
  5
302
330
2E5
100
AcDbEntity
  8
0
 62
     0
100
AcDbMText
 10
2.682872052333875
 20
12.87524275362561
 30
0.0
 40
0.5400000000000001
 41
0.0
 71
     5
 72
     1
  1
\A1;10"
 73
     1
 44
1.0
1001
ACAD
1000
MTEXTBEGIN
1070
    73
1070
     1
1070
    44
1040
1.0
1070
    74
1070
     0
1000
MTEXTEND
  0
POINT
  5
303
330
2E5
100
AcDbEntity
  8
Defpoints
 62
     0
100
AcDbPoint
 10
4.117518547193277
 20
17.87524275362558
 30
0.0
  0
POINT
  5
304
330
2E5
100
AcDbEntity
  8
Defpoints
 62
     0
100
AcDbPoint
 10
4.117518547192965
 20
7.875242753625581
 30
0.0
  0
POINT
  5
305
330
2E5
100
AcDbEntity
  8
Defpoints
 62
     0
100
AcDbPoint
 10
2.682872052333876
 20
7.875242753625581
 30
0.0
  0
ENDBLK
  5
2E7
330
2E5
100
AcDbEntity
  8
0
100
AcDbBlockEnd
  0
BLOCK
  5
307
330
306
100
AcDbEntity
  8
0
100
AcDbBlockBegin
  2
*D12
 70
     1
 10
0.0
 20
0.0
 30
0.0
  3
*D12
  1

  0
LINE
  5
308
330
306
100
AcDbEntity
  8
0
 62
     0
370
    -2
100
AcDbLine
 10
16.75533706895487
 20
21.16919302578483
 30
0.0
 11
16.75533706895487
 21
22.59716185457317
 31
0.0
  0
LINE
  5
309
330
306
100
AcDbEntity
  8
0
 62
     0
370
    -2
100
AcDbLine
 10
26.75533706895488
 20
21.16919302578483
 30
0.0
 11
26.75533706895488
 21
22.59716185457317
 31
0.0
  0
LINE
  5
30A
330
306
100
AcDbEntity
  8
0
 62
     0
370
    -2
100
AcDbLine
 10
16.75533706895487
 20
22.05716185457317
 30
0.0
 11
20.99033706895487
 21
22.05716185457317
 31
0.0
  0
LINE
  5
30B
330
306
100
AcDbEntity
  8
0
 62
     0
370
    -2
100
AcDbLine
 10
26.75533706895488
 20
22.05716185457317
 30
0.0
 11
22.52033706895487
 21
22.05716185457317
 31
0.0
  0
INSERT
  5
30C
330
306
100
AcDbEntity
  8
0
 62
     0
370
    -2
100
AcDbBlockReference
  2
_ArchTick
 10
16.75533706895487
 20
22.05716185457317
 30
0.0
 41
0.5400000000000001
 42
0.5400000000000001
 43
0.5400000000000001
 50
180.0
  0
INSERT
  5
30D
330
306
100
AcDbEntity
  8
0
 62
     0
370
    -2
100
AcDbBlockReference
  2
_ArchTick
 10
26.75533706895488
 20
22.05716185457317
 30
0.0
 41
0.5400000000000001
 42
0.5400000000000001
 43
0.5400000000000001
  0
MTEXT
  5
30E
330
306
100
AcDbEntity
  8
0
 62
     0
100
AcDbMText
 10
21.75533706895487
 20
22.05716185457317
 30
0.0
 40
0.5400000000000001
 41
0.0
 71
     5
 72
     1
  1
\A1;10"
 73
     1
 44
1.0
1001
ACAD
1000
MTEXTBEGIN
1070
    73
1070
     1
1070
    44
1040
1.0
1070
    74
1070
     0
1000
MTEXTEND
  0
POINT
  5
30F
330
306
100
AcDbEntity
  8
Defpoints
 62
     0
100
AcDbPoint
 10
16.75533706895487
 20
20.98169302578483
 30
0.0
  0
POINT
  5
310
330
306
100
AcDbEntity
  8
Defpoints
 62
     0
100
AcDbPoint
 10
26.75533706895488
 20
20.98169302578483
 30
0.0
  0
POINT
  5
311
330
306
100
AcDbEntity
  8
Defpoints
 62
     0
100
AcDbPoint
 10
26.75533706895488
 20
22.05716185457317
 30
0.0
  0
ENDBLK
  5
312
330
306
100
AcDbEntity
  8
0
100
AcDbBlockEnd
  0
BLOCK
  5
314
330
313
100
AcDbEntity
  8
0
100
AcDbBlockBegin
  2
*D13
 70
     1
 10
0.0
 20
0.0
 30
0.0
  3
*D13
  1

  0
LINE
  5
315
330
313
100
AcDbEntity
  8
0
 62
     0
370
    -2
100
AcDbLine
 10
16.56783706895487
 20
20.98169302578482
 30
0.0
 11
14.78069057409547
 21
20.98169302578482
 31
0.0
  0
LINE
  5
316
330
313
100
AcDbEntity
  8
0
 62
     0
370
    -2
100
AcDbLine
 10
16.56783706895456
 20
10.98169302578481
 30
0.0
 11
14.78069057409547
 21
10.98169302578481
 31
0.0
  0
LINE
  5
317
330
313
100
AcDbEntity
  8
0
 62
     0
370
    -2
100
AcDbLine
 10
15.32069057409547
 20
20.98169302578482
 30
0.0
 11
15.32069057409547
 21
16.52169302578484
 31
0.0
  0
LINE
  5
318
330
313
100
AcDbEntity
  8
0
 62
     0
370
    -2
100
AcDbLine
 10
15.32069057409547
 20
10.98169302578481
 30
0.0
 11
15.32069057409547
 21
15.44169302578484
 31
0.0
  0
INSERT
  5
319
330
313
100
AcDbEntity
  8
0
 62
     0
370
    -2
100
AcDbBlockReference
  2
_ArchTick
 10
15.32069057409547
 20
20.98169302578482
 30
0.0
 41
0.5400000000000001
 42
0.5400000000000001
 43
0.5400000000000001
 50
90.0
  0
INSERT
  5
31A
330
313
100
AcDbEntity
  8
0
 62
     0
370
    -2
100
AcDbBlockReference
  2
_ArchTick
 10
15.32069057409547
 20
10.98169302578481
 30
0.0
 41
0.5400000000000001
 42
0.5400000000000001
 43
0.5400000000000001
 50
270.0
  0
MTEXT
  5
31B
330
313
100
AcDbEntity
  8
0
 62
     0
100
AcDbMText
 10
15.32069057409547
 20
15.98169302578484
 30
0.0
 40
0.5400000000000001
 41
0.0
 71
     5
 72
     1
  1
\A1;10"
 73
     1
 44
1.0
1001
ACAD
1000
MTEXTBEGIN
1070
    73
1070
     1
1070
    44
1040
1.0
1070
    74
1070
     0
1000
MTEXTEND
  0
POINT
  5
31C
330
313
100
AcDbEntity
  8
Defpoints
 62
     0
100
AcDbPoint
 10
16.75533706895487
 20
20.98169302578482
 30
0.0
  0
POINT
  5
31D
330
313
100
AcDbEntity
  8
Defpoints
 62
     0
100
AcDbPoint
 10
16.75533706895456
 20
10.98169302578481
 30
0.0
  0
POINT
  5
31E
330
313
100
AcDbEntity
  8
Defpoints
 62
     0
100
AcDbPoint
 10
15.32069057409547
 20
10.98169302578481
 30
0.0
  0
ENDBLK
  5
31F
330
313
100
AcDbEntity
  8
0
100
AcDbBlockEnd
  0
BLOCK
  5
32A
330
320
100
AcDbEntity
  8
0
100
AcDbBlockBegin
  2
A$C297B00DD
 70
     0
 10
0.0
 20
0.0
 30
0.0
  3
A$C297B00DD
  1

  0
LINE
  5
321
330
320
100
AcDbEntity
  8
0
100
AcDbLine
 10
11.97464651693082
 20
10.29863784900988
 30
0.0
 11
11.97464651693082
 21
8.298637849009903
 31
0.0
  0
LINE
  5
322
330
320
100
AcDbEntity
  8
0
100
AcDbLine
 10
1.974646516930818
 20
10.29863784900988
 30
0.0
 11
1.974646516930818
 21
0.2986378490098911
 31
0.0
  0
LINE
  5
323
330
320
100
AcDbEntity
  8
0
100
AcDbLine
 10
1.974646516930818
 20
10.29863784900988
 30
0.0
 11
11.97464651693082
 21
10.29863784900988
 31
0.0
  0
LINE
  5
324
330
320
100
AcDbEntity
  8
0
100
AcDbLine
 10
1.974646516930704
 20
0.2986378490098751
 30
0.0
 11
3.974646516930704
 21
0.2986378490098751
 31
0.0
  0
ARC
  5
325
330
320
100
AcDbEntity
  8
0
100
AcDbCircle
 10
3.974730675089432
 20
8.298433761386217
 30
0.0
 40
5.99979591296659
100
AcDbArc
 50
269.9991963214452
 51
0.001948959542343
  0
LINE
  5
326
330
320
100
AcDbEntity
  8
0
100
AcDbLine
 10
3.974646516930704
 20
2.29863784900986
 30
0.0
 11
3.974646516930704
 21
0.2986378490098609
 31
0.0
  0
LINE
  5
327
330
320
100
AcDbEntity
  8
0
100
AcDbLine
 10
9.974646516930818
 20
8.298637849010031
 30
0.0
 11
11.97464651693082
 21
8.298637849009914
 31
0.0
  0
DIMENSION
  5
328
330
320
100
AcDbEntity
  8
0
100
AcDbDimension
  2
*D12
 10
11.97464651693082
 20
11.37410667779823
 30
0.0
 11
6.974646516930818
 21
11.37410667779823
 31
0.0
 12
-14.78069055202405
 22
-10.68305517677494
 32
0.0
 71
     5
 42
10.0
  3
Standard
100
AcDbAlignedDimension
 13
1.974646516930818
 23
10.29863784900988
 33
0.0
 14
11.97464651693082
 24
10.29863784900988
 34
0.0
100
AcDbRotatedDimension
  0
DIMENSION
  5
329
330
320
100
AcDbEntity
  8
0
100
AcDbDimension
  2
*D13
 10
0.5400000220714159
 20
0.2986378490098751
 30
0.0
 11
0.5400000220714159
 21
5.298637849009903
 31
0.0
 12
-14.78069055202405
 22
-10.68305517677494
 32
0.0
 70
   128
 71
     5
 42
10.0
  3
Standard
100
AcDbAlignedDimension
 13
1.974646516930818
 23
10.29863784900987
 33
0.0
 14
1.974646516930505
 24
0.2986378490098751
 34
0.0
 50
269.9999999999984
100
AcDbRotatedDimension
  0
ENDBLK
  5
32B
330
320
100
AcDbEntity
  8
0
100
AcDbBlockEnd
  0
BLOCK
  5
381
330
380
100
AcDbEntity
  8
0
100
AcDbBlockBegin
  2
*D15
 70
     1
 10
0.0
 20
0.0
 30
0.0
  3
*D15
  1

  0
LINE
  5
382
330
380
100
AcDbEntity
  8
0
 62
     0
370
    -2
100
AcDbLine
 10
16.7600924339884
 20
19.22154923714273
 30
0.0
 11
16.7600924339884
 21
20.64951806593107
 31
0.0
  0
LINE
  5
383
330
380
100
AcDbEntity
  8
0
 62
     0
370
    -2
100
AcDbLine
 10
22.76009243398846
 20
19.22154923714273
 30
0.0
 11
22.76009243398846
 21
20.64951806593107
 31
0.0
  0
LINE
  5
384
330
380
100
AcDbEntity
  8
0
 62
     0
370
    -2
100
AcDbLine
 10
16.7600924339884
 20
20.10951806593107
 30
0.0
 11
19.13009243398843
 21
20.10951806593107
 31
0.0
  0
LINE
  5
385
330
380
100
AcDbEntity
  8
0
 62
     0
370
    -2
100
AcDbLine
 10
22.76009243398846
 20
20.10951806593107
 30
0.0
 11
20.39009243398843
 21
20.10951806593107
 31
0.0
  0
INSERT
  5
386
330
380
100
AcDbEntity
  8
0
 62
     0
370
    -2
100
AcDbBlockReference
  2
_ArchTick
 10
16.7600924339884
 20
20.10951806593107
 30
0.0
 41
0.5400000000000001
 42
0.5400000000000001
 43
0.5400000000000001
 50
180.0
  0
INSERT
  5
387
330
380
100
AcDbEntity
  8
0
 62
     0
370
    -2
100
AcDbBlockReference
  2
_ArchTick
 10
22.76009243398846
 20
20.10951806593107
 30
0.0
 41
0.5400000000000001
 42
0.5400000000000001
 43
0.5400000000000001
  0
MTEXT
  5
388
330
380
100
AcDbEntity
  8
0
 62
     0
100
AcDbMText
 10
19.76009243398843
 20
20.10951806593107
 30
0.0
 40
0.5400000000000001
 41
0.0
 71
     5
 72
     1
  1
\A1;6"
 73
     1
 44
1.0
1001
ACAD
1000
MTEXTBEGIN
1070
    73
1070
     1
1070
    44
1040
1.0
1070
    74
1070
     0
1000
MTEXTEND
  0
POINT
  5
389
330
380
100
AcDbEntity
  8
Defpoints
 62
     0
100
AcDbPoint
 10
16.7600924339884
 20
19.03404923714273
 30
0.0
  0
POINT
  5
38A
330
380
100
AcDbEntity
  8
Defpoints
 62
     0
100
AcDbPoint
 10
22.76009243398846
 20
19.03404923714273
 30
0.0
  0
POINT
  5
38B
330
380
100
AcDbEntity
  8
Defpoints
 62
     0
100
AcDbPoint
 10
22.76009243398846
 20
20.10951806593107
 30
0.0
  0
ENDBLK
  5
38C
330
380
100
AcDbEntity
  8
0
100
AcDbBlockEnd
  0
BLOCK
  5
38E
330
38D
100
AcDbEntity
  8
0
100
AcDbBlockBegin
  2
*D16
 70
     1
 10
0.0
 20
0.0
 30
0.0
  3
*D16
  1

  0
LINE
  5
38F
330
38D
100
AcDbEntity
  8
0
 62
     0
370
    -2
100
AcDbLine
 10
16.5725924339884
 20
19.03404923714273
 30
0.0
 11
15.09935668635616
 21
19.03404923714273
 31
0.0
  0
LINE
  5
390
330
38D
100
AcDbEntity
  8
0
 62
     0
370
    -2
100
AcDbLine
 10
16.57259243398869
 20
11.03404923714273
 30
0.0
 11
15.09935668635616
 21
11.03404923714273
 31
0.0
  0
LINE
  5
391
330
38D
100
AcDbEntity
  8
0
 62
     0
370
    -2
100
AcDbLine
 10
15.63935668635617
 20
19.03404923714273
 30
0.0
 11
15.63935668635617
 21
15.57404923714273
 31
0.0
  0
LINE
  5
392
330
38D
100
AcDbEntity
  8
0
 62
     0
370
    -2
100
AcDbLine
 10
15.63935668635616
 20
11.03404923714273
 30
0.0
 11
15.63935668635617
 21
14.49404923714273
 31
0.0
  0
INSERT
  5
393
330
38D
100
AcDbEntity
  8
0
 62
     0
370
    -2
100
AcDbBlockReference
  2
_ArchTick
 10
15.63935668635617
 20
19.03404923714273
 30
0.0
 41
0.5400000000000001
 42
0.5400000000000001
 43
0.5400000000000001
 50
90.0
  0
INSERT
  5
394
330
38D
100
AcDbEntity
  8
0
 62
     0
370
    -2
100
AcDbBlockReference
  2
_ArchTick
 10
15.63935668635616
 20
11.03404923714273
 30
0.0
 41
0.5400000000000001
 42
0.5400000000000001
 43
0.5400000000000001
 50
270.0
  0
MTEXT
  5
395
330
38D
100
AcDbEntity
  8
0
 62
     0
100
AcDbMText
 10
15.63935668635616
 20
15.03404923714273
 30
0.0
 40
0.5400000000000001
 41
0.0
 71
     5
 72
     1
  1
\A1;8"
 73
     1
 44
1.0
1001
ACAD
1000
MTEXTBEGIN
1070
    73
1070
     1
1070
    44
1040
1.0
1070
    74
1070
     0
1000
MTEXTEND
  0
POINT
  5
396
330
38D
100
AcDbEntity
  8
Defpoints
 62
     0
100
AcDbPoint
 10
16.7600924339884
 20
19.03404923714273
 30
0.0
  0
POINT
  5
397
330
38D
100
AcDbEntity
  8
Defpoints
 62
     0
100
AcDbPoint
 10
16.76009243398869
 20
11.03404923714273
 30
0.0
  0
POINT
  5
398
330
38D
100
AcDbEntity
  8
Defpoints
 62
     0
100
AcDbPoint
 10
15.63935668635616
 20
11.03404923714273
 30
0.0
  0
ENDBLK
  5
399
330
38D
100
AcDbEntity
  8
0
100
AcDbBlockEnd
  0
BLOCK
  5
3B1
330
3B0
100
AcDbEntity
  8
0
100
AcDbBlockBegin
  2
*D18
 70
     1
 10
0.0
 20
0.0
 30
0.0
  3
*D18
  1

  0
LINE
  5
3CA
330
3B0
100
AcDbEntity
  8
0
 62
     0
370
    -2
100
AcDbLine
 10
7.718486205828227
 20
11.37294241133155
 30
0.0
 11
7.718486205828227
 21
12.80091124011989
 31
0.0
  0
LINE
  5
3CB
330
3B0
100
AcDbEntity
  8
0
 62
     0
370
    -2
100
AcDbLine
 10
13.71848620582828
 20
11.37294241133155
 30
0.0
 11
13.71848620582828
 21
12.80091124011989
 31
0.0
  0
LINE
  5
3CC
330
3B0
100
AcDbEntity
  8
0
 62
     0
370
    -2
100
AcDbLine
 10
7.718486205828227
 20
12.26091124011989
 30
0.0
 11
10.08848620582825
 21
12.26091124011989
 31
0.0
  0
LINE
  5
3CD
330
3B0
100
AcDbEntity
  8
0
 62
     0
370
    -2
100
AcDbLine
 10
13.71848620582828
 20
12.26091124011989
 30
0.0
 11
11.34848620582825
 21
12.26091124011989
 31
0.0
  0
INSERT
  5
3CE
330
3B0
100
AcDbEntity
  8
0
 62
     0
370
    -2
100
AcDbBlockReference
  2
_ArchTick
 10
7.718486205828227
 20
12.26091124011989
 30
0.0
 41
0.5400000000000001
 42
0.5400000000000001
 43
0.5400000000000001
 50
180.0
  0
INSERT
  5
3CF
330
3B0
100
AcDbEntity
  8
0
 62
     0
370
    -2
100
AcDbBlockReference
  2
_ArchTick
 10
13.71848620582828
 20
12.26091124011989
 30
0.0
 41
0.5400000000000001
 42
0.5400000000000001
 43
0.5400000000000001
  0
MTEXT
  5
3D0
330
3B0
100
AcDbEntity
  8
0
 62
     0
100
AcDbMText
 10
10.71848620582825
 20
12.26091124011989
 30
0.0
 40
0.5400000000000001
 41
0.0
 71
     5
 72
     1
  1
\A1;6"
 73
     1
 44
1.0
1001
ACAD
1000
MTEXTBEGIN
1070
    73
1070
     1
1070
    44
1040
1.0
1070
    74
1070
     0
1000
MTEXTEND
  0
POINT
  5
3D1
330
3B0
100
AcDbEntity
  8
Defpoints
 62
     0
100
AcDbPoint
 10
7.718486205828227
 20
11.18544241133155
 30
0.0
  0
POINT
  5
3D2
330
3B0
100
AcDbEntity
  8
Defpoints
 62
     0
100
AcDbPoint
 10
13.71848620582828
 20
11.18544241133155
 30
0.0
  0
POINT
  5
3D3
330
3B0
100
AcDbEntity
  8
Defpoints
 62
     0
100
AcDbPoint
 10
13.71848620582828
 20
12.26091124011989
 30
0.0
  0
ENDBLK
  5
3B2
330
3B0
100
AcDbEntity
  8
0
100
AcDbBlockEnd
  0
BLOCK
  5
3BE
330
3BD
100
AcDbEntity
  8
0
100
AcDbBlockBegin
  2
*D19
 70
     1
 10
0.0
 20
0.0
 30
0.0
  3
*D19
  1

  0
LINE
  5
3D4
330
3BD
100
AcDbEntity
  8
0
 62
     0
370
    -2
100
AcDbLine
 10
7.530986205828227
 20
11.18544241133155
 30
0.0
 11
6.05775045819599
 21
11.18544241133155
 31
0.0
  0
LINE
  5
3D5
330
3BD
100
AcDbEntity
  8
0
 62
     0
370
    -2
100
AcDbLine
 10
7.530986205828511
 20
3.185442411331552
 30
0.0
 11
6.057750458195989
 21
3.185442411331552
 31
0.0
  0
LINE
  5
3D6
330
3BD
100
AcDbEntity
  8
0
 62
     0
370
    -2
100
AcDbLine
 10
6.59775045819599
 20
11.18544241133155
 30
0.0
 11
6.59775045819599
 21
7.72544241133155
 31
0.0
  0
LINE
  5
3D7
330
3BD
100
AcDbEntity
  8
0
 62
     0
370
    -2
100
AcDbLine
 10
6.597750458195989
 20
3.185442411331552
 30
0.0
 11
6.59775045819599
 21
6.64544241133155
 31
0.0
  0
INSERT
  5
3D8
330
3BD
100
AcDbEntity
  8
0
 62
     0
370
    -2
100
AcDbBlockReference
  2
_ArchTick
 10
6.59775045819599
 20
11.18544241133155
 30
0.0
 41
0.5400000000000001
 42
0.5400000000000001
 43
0.5400000000000001
 50
90.0
  0
INSERT
  5
3D9
330
3BD
100
AcDbEntity
  8
0
 62
     0
370
    -2
100
AcDbBlockReference
  2
_ArchTick
 10
6.597750458195989
 20
3.185442411331552
 30
0.0
 41
0.5400000000000001
 42
0.5400000000000001
 43
0.5400000000000001
 50
270.0
  0
MTEXT
  5
3DA
330
3BD
100
AcDbEntity
  8
0
 62
     0
100
AcDbMText
 10
6.597750458195988
 20
7.185442411331552
 30
0.0
 40
0.5400000000000001
 41
0.0
 71
     5
 72
     1
  1
\A1;8"
 73
     1
 44
1.0
1001
ACAD
1000
MTEXTBEGIN
1070
    73
1070
     1
1070
    44
1040
1.0
1070
    74
1070
     0
1000
MTEXTEND
  0
POINT
  5
3DB
330
3BD
100
AcDbEntity
  8
Defpoints
 62
     0
100
AcDbPoint
 10
7.718486205828227
 20
11.18544241133155
 30
0.0
  0
POINT
  5
3DC
330
3BD
100
AcDbEntity
  8
Defpoints
 62
     0
100
AcDbPoint
 10
7.718486205828511
 20
3.185442411331552
 30
0.0
  0
POINT
  5
3DD
330
3BD
100
AcDbEntity
  8
Defpoints
 62
     0
100
AcDbPoint
 10
6.597750458195989
 20
3.185442411331552
 30
0.0
  0
ENDBLK
  5
3BF
330
3BD
100
AcDbEntity
  8
0
100
AcDbBlockEnd
  0
BLOCK
  5
3DF
330
3DE
100
AcDbEntity
  8
0
100
AcDbBlockBegin
  2
*D20
 70
     1
 10
0.0
 20
0.0
 30
0.0
  3
*D20
  1

  0
LINE
  5
3E0
330
3DE
100
AcDbEntity
  8
0
 62
     0
370
    -2
100
AcDbLine
 10
16.7600924339884
 20
19.22154923714273
 30
0.0
 11
16.7600924339884
 21
20.64951806593107
 31
0.0
  0
LINE
  5
3E1
330
3DE
100
AcDbEntity
  8
0
 62
     0
370
    -2
100
AcDbLine
 10
22.76009243398846
 20
19.22154923714273
 30
0.0
 11
22.76009243398846
 21
20.64951806593107
 31
0.0
  0
LINE
  5
3E2
330
3DE
100
AcDbEntity
  8
0
 62
     0
370
    -2
100
AcDbLine
 10
16.7600924339884
 20
20.10951806593107
 30
0.0
 11
19.13009243398843
 21
20.10951806593107
 31
0.0
  0
LINE
  5
3E3
330
3DE
100
AcDbEntity
  8
0
 62
     0
370
    -2
100
AcDbLine
 10
22.76009243398846
 20
20.10951806593107
 30
0.0
 11
20.39009243398843
 21
20.10951806593107
 31
0.0
  0
INSERT
  5
3E4
330
3DE
100
AcDbEntity
  8
0
 62
     0
370
    -2
100
AcDbBlockReference
  2
_ArchTick
 10
16.7600924339884
 20
20.10951806593107
 30
0.0
 41
0.5400000000000001
 42
0.5400000000000001
 43
0.5400000000000001
 50
180.0
  0
INSERT
  5
3E5
330
3DE
100
AcDbEntity
  8
0
 62
     0
370
    -2
100
AcDbBlockReference
  2
_ArchTick
 10
22.76009243398846
 20
20.10951806593107
 30
0.0
 41
0.5400000000000001
 42
0.5400000000000001
 43
0.5400000000000001
  0
MTEXT
  5
3E6
330
3DE
100
AcDbEntity
  8
0
 62
     0
100
AcDbMText
 10
19.76009243398843
 20
20.10951806593107
 30
0.0
 40
0.5400000000000001
 41
0.0
 71
     5
 72
     1
  1
\A1;6"
 73
     1
 44
1.0
1001
ACAD
1000
MTEXTBEGIN
1070
    73
1070
     1
1070
    44
1040
1.0
1070
    74
1070
     0
1000
MTEXTEND
  0
POINT
  5
3E7
330
3DE
100
AcDbEntity
  8
Defpoints
 62
     0
100
AcDbPoint
 10
16.7600924339884
 20
19.03404923714273
 30
0.0
  0
POINT
  5
3E8
330
3DE
100
AcDbEntity
  8
Defpoints
 62
     0
100
AcDbPoint
 10
22.76009243398846
 20
19.03404923714273
 30
0.0
  0
POINT
  5
3E9
330
3DE
100
AcDbEntity
  8
Defpoints
 62
     0
100
AcDbPoint
 10
22.76009243398846
 20
20.10951806593107
 30
0.0
  0
ENDBLK
  5
3EA
330
3DE
100
AcDbEntity
  8
0
100
AcDbBlockEnd
  0
BLOCK
  5
3EC
330
3EB
100
AcDbEntity
  8
0
100
AcDbBlockBegin
  2
*D21
 70
     1
 10
0.0
 20
0.0
 30
0.0
  3
*D21
  1

  0
LINE
  5
3ED
330
3EB
100
AcDbEntity
  8
0
 62
     0
370
    -2
100
AcDbLine
 10
16.5725924339884
 20
19.03404923714273
 30
0.0
 11
15.09935668635616
 21
19.03404923714273
 31
0.0
  0
LINE
  5
3EE
330
3EB
100
AcDbEntity
  8
0
 62
     0
370
    -2
100
AcDbLine
 10
16.57259243398869
 20
11.03404923714273
 30
0.0
 11
15.09935668635616
 21
11.03404923714273
 31
0.0
  0
LINE
  5
3EF
330
3EB
100
AcDbEntity
  8
0
 62
     0
370
    -2
100
AcDbLine
 10
15.63935668635617
 20
19.03404923714273
 30
0.0
 11
15.63935668635617
 21
15.57404923714273
 31
0.0
  0
LINE
  5
3F0
330
3EB
100
AcDbEntity
  8
0
 62
     0
370
    -2
100
AcDbLine
 10
15.63935668635616
 20
11.03404923714273
 30
0.0
 11
15.63935668635617
 21
14.49404923714273
 31
0.0
  0
INSERT
  5
3F1
330
3EB
100
AcDbEntity
  8
0
 62
     0
370
    -2
100
AcDbBlockReference
  2
_ArchTick
 10
15.63935668635617
 20
19.03404923714273
 30
0.0
 41
0.5400000000000001
 42
0.5400000000000001
 43
0.5400000000000001
 50
90.0
  0
INSERT
  5
3F2
330
3EB
100
AcDbEntity
  8
0
 62
     0
370
    -2
100
AcDbBlockReference
  2
_ArchTick
 10
15.63935668635616
 20
11.03404923714273
 30
0.0
 41
0.5400000000000001
 42
0.5400000000000001
 43
0.5400000000000001
 50
270.0
  0
MTEXT
  5
3F3
330
3EB
100
AcDbEntity
  8
0
 62
     0
100
AcDbMText
 10
15.63935668635616
 20
15.03404923714273
 30
0.0
 40
0.5400000000000001
 41
0.0
 71
     5
 72
     1
  1
\A1;8"
 73
     1
 44
1.0
1001
ACAD
1000
MTEXTBEGIN
1070
    73
1070
     1
1070
    44
1040
1.0
1070
    74
1070
     0
1000
MTEXTEND
  0
POINT
  5
3F4
330
3EB
100
AcDbEntity
  8
Defpoints
 62
     0
100
AcDbPoint
 10
16.7600924339884
 20
19.03404923714273
 30
0.0
  0
POINT
  5
3F5
330
3EB
100
AcDbEntity
  8
Defpoints
 62
     0
100
AcDbPoint
 10
16.76009243398869
 20
11.03404923714273
 30
0.0
  0
POINT
  5
3F6
330
3EB
100
AcDbEntity
  8
Defpoints
 62
     0
100
AcDbPoint
 10
15.63935668635616
 20
11.03404923714273
 30
0.0
  0
ENDBLK
  5
3F7
330
3EB
100
AcDbEntity
  8
0
100
AcDbBlockEnd
  0
BLOCK
  5
402
330
3F8
100
AcDbEntity
  8
0
100
AcDbBlockBegin
  2
A$C59227C8C
 70
     0
 10
0.0
 20
0.0
 30
0.0
  3
A$C59227C8C
  1

  0
ARC
  5
3F9
330
3F8
100
AcDbEntity
  8
0
100
AcDbCircle
 10
-0.2296691365716299
 20
7.591420204973069
 30
0.0
 40
7.222759892079517
100
AcDbArc
 50
293.5894385022518
 51
357.6768169519754
  0
LINE
  5
3FA
330
3F8
100
AcDbEntity
  8
0
100
AcDbLine
 10
7.660735711168541
 20
7.298637804786928
 30
0.0
 11
6.987154189849377
 21
7.298637804786928
 31
0.0
  0
LINE
  5
3FB
330
3F8
100
AcDbEntity
  8
0
100
AcDbLine
 10
1.660735711168484
 20
0.2986378047869316
 30
0.0
 11
1.660735711168484
 21
8.298637804786928
 31
0.0
  0
LINE
  5
3FC
330
3F8
100
AcDbEntity
  8
0
100
AcDbLine
 10
7.660735711168541
 20
8.298637804786928
 30
0.0
 11
7.660735711168541
 21
7.298637804786928
 31
0.0
  0
LINE
  5
3FD
330
3F8
100
AcDbEntity
  8
0
100
AcDbLine
 10
1.660735711168484
 20
8.298637804786928
 30
0.0
 11
7.660735711168541
 21
8.298637804786928
 31
0.0
  0
DIMENSION
  5
3FE
330
3F8
100
AcDbEntity
  8
0
100
AcDbDimension
  2
*D20
 10
7.660735711168541
 20
9.374106633575269
 30
0.0
 11
4.660735711168513
 21
9.374106633575269
 31
0.0
 12
-15.09935672281992
 22
-10.7354114323558
 32
0.0
 71
     5
 42
6.000000000000056
  3
Standard
100
AcDbAlignedDimension
 13
1.660735711168484
 23
8.298637804786928
 33
0.0
 14
7.660735711168541
 24
8.298637804786928
 34
0.0
100
AcDbRotatedDimension
  0
DIMENSION
  5
3FF
330
3F8
100
AcDbEntity
  8
0
100
AcDbDimension
  2
*D21
 10
0.5399999635362463
 20
0.2986378047869316
 30
0.0
 11
0.5399999635362463
 21
4.298637804786931
 31
0.0
 12
-15.09935672281992
 22
-10.7354114323558
 32
0.0
 71
     5
 42
7.999999999999996
  3
Standard
100
AcDbAlignedDimension
 13
1.660735711168484
 23
8.298637804786928
 33
0.0
 14
1.660735711168769
 24
0.2986378047869316
 34
0.0
 50
90.0
100
AcDbRotatedDimension
  0
LINE
  5
400
330
3F8
100
AcDbEntity
  8
0
100
AcDbLine
 10
2.660735711168371
 20
0.2986378047869031
 30
0.0
 11
2.660735711168484
 21
0.9722193261060958
 31
0.0
  0
LINE
  5
401
330
3F8
100
AcDbEntity
  8
0
100
AcDbLine
 10
1.660735711168371
 20
0.2986378047869316
 30
0.0
 11
2.660735711168371
 21
0.2986378047869031
 31
0.0
  0
ENDBLK
  5
403
330
3F8
100
AcDbEntity
  8
0
100
AcDbBlockEnd
  0
BLOCK
  5
45C
330
45B
100
AcDbEntity
  8
0
100
AcDbBlockBegin
  2
*D23
 70
     1
 10
0.0
 20
0.0
 30
0.0
  3
*D23
  1

  0
LINE
  5
45D
330
45B
100
AcDbEntity
  8
0
 62
     0
370
    -2
100
AcDbLine
 10
18.02709231791951
 20
18.16444281347826
 30
0.0
 11
18.02709231791951
 21
19.62051113412014
 31
0.0
  0
LINE
  5
45E
330
45B
100
AcDbEntity
  8
0
 62
     0
370
    -2
100
AcDbLine
 10
22.02709231791951
 20
18.16444281347826
 30
0.0
 11
22.02709231791951
 21
19.62051113412014
 31
0.0
  0
LINE
  5
45F
330
45B
100
AcDbEntity
  8
0
 62
     0
370
    -2
100
AcDbLine
 10
18.02709231791951
 20
19.08051113412015
 30
0.0
 11
19.39709231791951
 21
19.08051113412015
 31
0.0
  0
LINE
  5
460
330
45B
100
AcDbEntity
  8
0
 62
     0
370
    -2
100
AcDbLine
 10
22.02709231791951
 20
19.08051113412015
 30
0.0
 11
20.65709231791951
 21
19.08051113412015
 31
0.0
  0
INSERT
  5
461
330
45B
100
AcDbEntity
  8
0
 62
     0
370
    -2
100
AcDbBlockReference
  2
_ArchTick
 10
18.02709231791951
 20
19.08051113412015
 30
0.0
 41
0.5400000000000001
 42
0.5400000000000001
 43
0.5400000000000001
 50
180.0
  0
INSERT
  5
462
330
45B
100
AcDbEntity
  8
0
 62
     0
370
    -2
100
AcDbBlockReference
  2
_ArchTick
 10
22.02709231791951
 20
19.08051113412015
 30
0.0
 41
0.5400000000000001
 42
0.5400000000000001
 43
0.5400000000000001
  0
MTEXT
  5
463
330
45B
100
AcDbEntity
  8
0
 62
     0
100
AcDbMText
 10
20.02709231791951
 20
19.08051113412015
 30
0.0
 40
0.5400000000000001
 41
0.0
 71
     5
 72
     1
  1
\A1;4"
 73
     1
 44
1.0
1001
ACAD
1000
MTEXTBEGIN
1070
    73
1070
     1
1070
    44
1040
1.0
1070
    74
1070
     0
1000
MTEXTEND
  0
POINT
  5
464
330
45B
100
AcDbEntity
  8
Defpoints
 62
     0
100
AcDbPoint
 10
18.02709231791951
 20
17.97694281347826
 30
0.0
  0
POINT
  5
465
330
45B
100
AcDbEntity
  8
Defpoints
 62
     0
100
AcDbPoint
 10
22.02709231791951
 20
17.97694281347826
 30
0.0
  0
POINT
  5
466
330
45B
100
AcDbEntity
  8
Defpoints
 62
     0
100
AcDbPoint
 10
22.02709231791951
 20
19.08051113412015
 30
0.0
  0
ENDBLK
  5
467
330
45B
100
AcDbEntity
  8
0
100
AcDbBlockEnd
  0
BLOCK
  5
469
330
468
100
AcDbEntity
  8
0
100
AcDbBlockBegin
  2
*D24
 70
     1
 10
0.0
 20
0.0
 30
0.0
  3
*D24
  1

  0
LINE
  5
46A
330
468
100
AcDbEntity
  8
0
 62
     0
370
    -2
100
AcDbLine
 10
17.83959231791951
 20
17.97694281347826
 30
0.0
 11
15.85073140062299
 21
17.97694281347826
 31
0.0
  0
LINE
  5
46B
330
468
100
AcDbEntity
  8
0
 62
     0
370
    -2
100
AcDbLine
 10
17.83959231791951
 20
10.97694281347825
 30
0.0
 11
15.85073140062299
 21
10.97694281347825
 31
0.0
  0
LINE
  5
46C
330
468
100
AcDbEntity
  8
0
 62
     0
370
    -2
100
AcDbLine
 10
16.39073140062299
 20
17.97694281347826
 30
0.0
 11
16.39073140062299
 21
15.01694281347826
 31
0.0
  0
LINE
  5
46D
330
468
100
AcDbEntity
  8
0
 62
     0
370
    -2
100
AcDbLine
 10
16.39073140062299
 20
10.97694281347825
 30
0.0
 11
16.39073140062299
 21
13.93694281347826
 31
0.0
  0
INSERT
  5
46E
330
468
100
AcDbEntity
  8
0
 62
     0
370
    -2
100
AcDbBlockReference
  2
_ArchTick
 10
16.39073140062299
 20
17.97694281347826
 30
0.0
 41
0.5400000000000001
 42
0.5400000000000001
 43
0.5400000000000001
 50
90.0
  0
INSERT
  5
46F
330
468
100
AcDbEntity
  8
0
 62
     0
370
    -2
100
AcDbBlockReference
  2
_ArchTick
 10
16.39073140062299
 20
10.97694281347825
 30
0.0
 41
0.5400000000000001
 42
0.5400000000000001
 43
0.5400000000000001
 50
270.0
  0
MTEXT
  5
470
330
468
100
AcDbEntity
  8
0
 62
     0
100
AcDbMText
 10
16.39073140062298
 20
14.47694281347826
 30
0.0
 40
0.5400000000000001
 41
0.0
 71
     5
 72
     1
  1
\A1;7"
 73
     1
 44
1.0
1001
ACAD
1000
MTEXTBEGIN
1070
    73
1070
     1
1070
    44
1040
1.0
1070
    74
1070
     0
1000
MTEXTEND
  0
POINT
  5
471
330
468
100
AcDbEntity
  8
Defpoints
 62
     0
100
AcDbPoint
 10
18.02709231791951
 20
17.97694281347826
 30
0.0
  0
POINT
  5
472
330
468
100
AcDbEntity
  8
Defpoints
 62
     0
100
AcDbPoint
 10
18.02709231791951
 20
10.97694281347825
 30
0.0
  0
POINT
  5
473
330
468
100
AcDbEntity
  8
Defpoints
 62
     0
100
AcDbPoint
 10
16.39073140062299
 20
10.97694281347825
 30
0.0
  0
ENDBLK
  5
474
330
468
100
AcDbEntity
  8
0
100
AcDbBlockEnd
  0
BLOCK
  5
492
330
491
100
AcDbEntity
  8
0
100
AcDbBlockBegin
  2
*D26
 70
     1
 10
0.0
 20
0.0
 30
0.0
  3
*D26
  1

  0
LINE
  5
494
330
491
100
AcDbEntity
  8
0
 62
     0
370
    -2
100
AcDbLine
 10
12.16518287043703
 20
9.317052506892895
 30
0.0
 11
12.16518287043703
 21
10.77312082753478
 31
0.0
  0
LINE
  5
495
330
491
100
AcDbEntity
  8
0
 62
     0
370
    -2
100
AcDbLine
 10
16.16518287043703
 20
9.317052506892895
 30
0.0
 11
16.16518287043703
 21
10.77312082753478
 31
0.0
  0
LINE
  5
496
330
491
100
AcDbEntity
  8
0
 62
     0
370
    -2
100
AcDbLine
 10
12.16518287043703
 20
10.23312082753478
 30
0.0
 11
13.53518287043703
 21
10.23312082753478
 31
0.0
  0
LINE
  5
497
330
491
100
AcDbEntity
  8
0
 62
     0
370
    -2
100
AcDbLine
 10
16.16518287043703
 20
10.23312082753478
 30
0.0
 11
14.79518287043704
 21
10.23312082753478
 31
0.0
  0
INSERT
  5
498
330
491
100
AcDbEntity
  8
0
 62
     0
370
    -2
100
AcDbBlockReference
  2
_ArchTick
 10
12.16518287043703
 20
10.23312082753478
 30
0.0
 41
0.5400000000000001
 42
0.5400000000000001
 43
0.5400000000000001
 50
180.0
  0
INSERT
  5
499
330
491
100
AcDbEntity
  8
0
 62
     0
370
    -2
100
AcDbBlockReference
  2
_ArchTick
 10
16.16518287043703
 20
10.23312082753478
 30
0.0
 41
0.5400000000000001
 42
0.5400000000000001
 43
0.5400000000000001
  0
MTEXT
  5
49A
330
491
100
AcDbEntity
  8
0
 62
     0
100
AcDbMText
 10
14.16518287043703
 20
10.23312082753478
 30
0.0
 40
0.5400000000000001
 41
0.0
 71
     5
 72
     1
  1
\A1;4"
 73
     1
 44
1.0
1001
ACAD
1000
MTEXTBEGIN
1070
    73
1070
     1
1070
    44
1040
1.0
1070
    74
1070
     0
1000
MTEXTEND
  0
POINT
  5
49B
330
491
100
AcDbEntity
  8
Defpoints
 62
     0
100
AcDbPoint
 10
12.16518287043703
 20
9.129552506892895
 30
0.0
  0
POINT
  5
49C
330
491
100
AcDbEntity
  8
Defpoints
 62
     0
100
AcDbPoint
 10
16.16518287043703
 20
9.129552506892895
 30
0.0
  0
POINT
  5
49D
330
491
100
AcDbEntity
  8
Defpoints
 62
     0
100
AcDbPoint
 10
16.16518287043703
 20
10.23312082753478
 30
0.0
  0
ENDBLK
  5
493
330
491
100
AcDbEntity
  8
0
100
AcDbBlockEnd
  0
BLOCK
  5
49F
330
49E
100
AcDbEntity
  8
0
100
AcDbBlockBegin
  2
*D27
 70
     1
 10
0.0
 20
0.0
 30
0.0
  3
*D27
  1

  0
LINE
  5
4A1
330
49E
100
AcDbEntity
  8
0
 62
     0
370
    -2
100
AcDbLine
 10
11.97768287043703
 20
9.129552506892897
 30
0.0
 11
9.988821953140517
 21
9.129552506892897
 31
0.0
  0
LINE
  5
4A2
330
49E
100
AcDbEntity
  8
0
 62
     0
370
    -2
100
AcDbLine
 10
11.97768287043703
 20
2.129552506892888
 30
0.0
 11
9.988821953140515
 21
2.129552506892889
 31
0.0
  0
LINE
  5
4A3
330
49E
100
AcDbEntity
  8
0
 62
     0
370
    -2
100
AcDbLine
 10
10.52882195314051
 20
9.129552506892897
 30
0.0
 11
10.52882195314051
 21
6.169552506892893
 31
0.0
  0
LINE
  5
4A4
330
49E
100
AcDbEntity
  8
0
 62
     0
370
    -2
100
AcDbLine
 10
10.52882195314051
 20
2.129552506892889
 30
0.0
 11
10.52882195314051
 21
5.089552506892893
 31
0.0
  0
INSERT
  5
4A5
330
49E
100
AcDbEntity
  8
0
 62
     0
370
    -2
100
AcDbBlockReference
  2
_ArchTick
 10
10.52882195314051
 20
9.129552506892897
 30
0.0
 41
0.5400000000000001
 42
0.5400000000000001
 43
0.5400000000000001
 50
90.0
  0
INSERT
  5
4A6
330
49E
100
AcDbEntity
  8
0
 62
     0
370
    -2
100
AcDbBlockReference
  2
_ArchTick
 10
10.52882195314051
 20
2.129552506892889
 30
0.0
 41
0.5400000000000001
 42
0.5400000000000001
 43
0.5400000000000001
 50
270.0
  0
MTEXT
  5
4A7
330
49E
100
AcDbEntity
  8
0
 62
     0
100
AcDbMText
 10
10.52882195314051
 20
5.629552506892895
 30
0.0
 40
0.5400000000000001
 41
0.0
 71
     5
 72
     1
  1
\A1;7"
 73
     1
 44
1.0
1001
ACAD
1000
MTEXTBEGIN
1070
    73
1070
     1
1070
    44
1040
1.0
1070
    74
1070
     0
1000
MTEXTEND
  0
POINT
  5
4A8
330
49E
100
AcDbEntity
  8
Defpoints
 62
     0
100
AcDbPoint
 10
12.16518287043703
 20
9.129552506892895
 30
0.0
  0
POINT
  5
4A9
330
49E
100
AcDbEntity
  8
Defpoints
 62
     0
100
AcDbPoint
 10
12.16518287043703
 20
2.129552506892888
 30
0.0
  0
POINT
  5
4AA
330
49E
100
AcDbEntity
  8
Defpoints
 62
     0
100
AcDbPoint
 10
10.52882195314051
 20
2.129552506892889
 30
0.0
  0
ENDBLK
  5
4A0
330
49E
100
AcDbEntity
  8
0
100
AcDbBlockEnd
  0
BLOCK
  5
4AC
330
4AB
100
AcDbEntity
  8
0
100
AcDbBlockBegin
  2
*D28
 70
     1
 10
0.0
 20
0.0
 30
0.0
  3
*D28
  1

  0
LINE
  5
4AD
330
4AB
100
AcDbEntity
  8
0
 62
     0
370
    -2
100
AcDbLine
 10
18.02709231791951
 20
18.16444281347826
 30
0.0
 11
18.02709231791951
 21
19.62051113412014
 31
0.0
  0
LINE
  5
4AE
330
4AB
100
AcDbEntity
  8
0
 62
     0
370
    -2
100
AcDbLine
 10
22.02709231791951
 20
18.16444281347826
 30
0.0
 11
22.02709231791951
 21
19.62051113412014
 31
0.0
  0
LINE
  5
4AF
330
4AB
100
AcDbEntity
  8
0
 62
     0
370
    -2
100
AcDbLine
 10
18.02709231791951
 20
19.08051113412015
 30
0.0
 11
19.39709231791951
 21
19.08051113412015
 31
0.0
  0
LINE
  5
4B0
330
4AB
100
AcDbEntity
  8
0
 62
     0
370
    -2
100
AcDbLine
 10
22.02709231791951
 20
19.08051113412015
 30
0.0
 11
20.65709231791951
 21
19.08051113412015
 31
0.0
  0
INSERT
  5
4B1
330
4AB
100
AcDbEntity
  8
0
 62
     0
370
    -2
100
AcDbBlockReference
  2
_ArchTick
 10
18.02709231791951
 20
19.08051113412015
 30
0.0
 41
0.5400000000000001
 42
0.5400000000000001
 43
0.5400000000000001
 50
180.0
  0
INSERT
  5
4B2
330
4AB
100
AcDbEntity
  8
0
 62
     0
370
    -2
100
AcDbBlockReference
  2
_ArchTick
 10
22.02709231791951
 20
19.08051113412015
 30
0.0
 41
0.5400000000000001
 42
0.5400000000000001
 43
0.5400000000000001
  0
MTEXT
  5
4B3
330
4AB
100
AcDbEntity
  8
0
 62
     0
100
AcDbMText
 10
20.02709231791951
 20
19.08051113412015
 30
0.0
 40
0.5400000000000001
 41
0.0
 71
     5
 72
     1
  1
\A1;4"
 73
     1
 44
1.0
1001
ACAD
1000
MTEXTBEGIN
1070
    73
1070
     1
1070
    44
1040
1.0
1070
    74
1070
     0
1000
MTEXTEND
  0
POINT
  5
4B4
330
4AB
100
AcDbEntity
  8
Defpoints
 62
     0
100
AcDbPoint
 10
18.02709231791951
 20
17.97694281347826
 30
0.0
  0
POINT
  5
4B5
330
4AB
100
AcDbEntity
  8
Defpoints
 62
     0
100
AcDbPoint
 10
22.02709231791951
 20
17.97694281347826
 30
0.0
  0
POINT
  5
4B6
330
4AB
100
AcDbEntity
  8
Defpoints
 62
     0
100
AcDbPoint
 10
22.02709231791951
 20
19.08051113412015
 30
0.0
  0
ENDBLK
  5
4B7
330
4AB
100
AcDbEntity
  8
0
100
AcDbBlockEnd
  0
BLOCK
  5
4B9
330
4B8
100
AcDbEntity
  8
0
100
AcDbBlockBegin
  2
*D29
 70
     1
 10
0.0
 20
0.0
 30
0.0
  3
*D29
  1

  0
LINE
  5
4BA
330
4B8
100
AcDbEntity
  8
0
 62
     0
370
    -2
100
AcDbLine
 10
17.83959231791951
 20
17.97694281347826
 30
0.0
 11
15.85073140062299
 21
17.97694281347826
 31
0.0
  0
LINE
  5
4BB
330
4B8
100
AcDbEntity
  8
0
 62
     0
370
    -2
100
AcDbLine
 10
17.83959231791951
 20
10.97694281347825
 30
0.0
 11
15.85073140062299
 21
10.97694281347825
 31
0.0
  0
LINE
  5
4BC
330
4B8
100
AcDbEntity
  8
0
 62
     0
370
    -2
100
AcDbLine
 10
16.39073140062299
 20
17.97694281347826
 30
0.0
 11
16.39073140062299
 21
15.01694281347826
 31
0.0
  0
LINE
  5
4BD
330
4B8
100
AcDbEntity
  8
0
 62
     0
370
    -2
100
AcDbLine
 10
16.39073140062299
 20
10.97694281347825
 30
0.0
 11
16.39073140062299
 21
13.93694281347826
 31
0.0
  0
INSERT
  5
4BE
330
4B8
100
AcDbEntity
  8
0
 62
     0
370
    -2
100
AcDbBlockReference
  2
_ArchTick
 10
16.39073140062299
 20
17.97694281347826
 30
0.0
 41
0.5400000000000001
 42
0.5400000000000001
 43
0.5400000000000001
 50
90.0
  0
INSERT
  5
4BF
330
4B8
100
AcDbEntity
  8
0
 62
     0
370
    -2
100
AcDbBlockReference
  2
_ArchTick
 10
16.39073140062299
 20
10.97694281347825
 30
0.0
 41
0.5400000000000001
 42
0.5400000000000001
 43
0.5400000000000001
 50
270.0
  0
MTEXT
  5
4C0
330
4B8
100
AcDbEntity
  8
0
 62
     0
100
AcDbMText
 10
16.39073140062298
 20
14.47694281347826
 30
0.0
 40
0.5400000000000001
 41
0.0
 71
     5
 72
     1
  1
\A1;7"
 73
     1
 44
1.0
1001
ACAD
1000
MTEXTBEGIN
1070
    73
1070
     1
1070
    44
1040
1.0
1070
    74
1070
     0
1000
MTEXTEND
  0
POINT
  5
4C1
330
4B8
100
AcDbEntity
  8
Defpoints
 62
     0
100
AcDbPoint
 10
18.02709231791951
 20
17.97694281347826
 30
0.0
  0
POINT
  5
4C2
330
4B8
100
AcDbEntity
  8
Defpoints
 62
     0
100
AcDbPoint
 10
18.02709231791951
 20
10.97694281347825
 30
0.0
  0
POINT
  5
4C3
330
4B8
100
AcDbEntity
  8
Defpoints
 62
     0
100
AcDbPoint
 10
16.39073140062299
 20
10.97694281347825
 30
0.0
  0
ENDBLK
  5
4C4
330
4B8
100
AcDbEntity
  8
0
100
AcDbBlockEnd
  0
BLOCK
  5
4D2
330
4C5
100
AcDbEntity
  8
0
100
AcDbBlockBegin
  2
A$C037015A8
 70
     0
 10
0.0
 20
0.0
 30
0.0
  3
A$C037015A8
  1

  0
ARC
  5
4C6
330
4C5
100
AcDbEntity
  8
0
100
AcDbCircle
 10
4.935950423474935
 20
7.35511085070259
 30
0.0
 40
1.241695461638369
100
AcDbArc
 50
294.2596788760602
 51
357.3932565670282
  0
ARC
  5
4C7
102
{ACAD_REACTORS
330
4D1
102
}
330
4C5
100
AcDbEntity
  8
0
100
AcDbCircle
 10
2.021681149423244
 20
1.701969484751266
 30
0.0
 40
1.411830568406418
100
AcDbArc
 50
276.289939951847
 51
355.798778909246
  0
LINE
  5
4C8
330
4C5
100
AcDbEntity
  8
0
100
AcDbLine
 10
3.429718010698337
 20
1.59853955109023
 30
0.0
 11
3.555316497212146
 21
3.807536437702339
 31
0.0
  0
ARC
  5
4C9
330
4C5
100
AcDbEntity
  8
0
100
AcDbCircle
 10
6.635777124570239
 20
3.344037329076428
 30
0.0
 40
3.115135486684383
100
AcDbArc
 50
112.4509746502672
 51
171.4432235429223
  0
LINE
  5
4CA
102
{ACAD_REACTORS
330
4D1
102
}
330
4C5
100
AcDbEntity
  8
0
100
AcDbLine
 10
2.176361008288949
 20
0.2986378435672989
 30
0.0
 11
2.176361008288949
 21
7.298637843567295
 31
0.0
  0
LINE
  5
4CB
102
{ACAD_REACTORS
330
4CE
102
}
330
4C5
100
AcDbEntity
  8
0
100
AcDbLine
 10
2.176361008288949
 20
7.298637843567295
 30
0.0
 11
6.176361008288949
 21
7.298637843567295
 31
0.0
  0
DIMENSION
  5
4CC
102
{ACAD_XDICTIONARY
360
4CD
102
}
102
{ACAD_REACTORS
330
4CE
102
}
330
4C5
100
AcDbEntity
  8
0
100
AcDbDimension
  2
*D28
 10
6.176361008288949
 20
8.402206164209179
 30
0.0
 11
4.176361008288949
 21
8.402206164209179
 31
0.0
 12
-15.85073130963056
 22
-10.67830496991097
 32
0.0
 71
     5
 42
4.0
  3
Standard
100
AcDbAlignedDimension
 13
2.176361008288949
 23
7.298637843567295
 33
0.0
 14
6.176361008288949
 24
7.298637843567295
 34
0.0
100
AcDbRotatedDimension
  0
DIMENSION
  5
4CF
102
{ACAD_XDICTIONARY
360
4D0
102
}
102
{ACAD_REACTORS
330
4D1
102
}
330
4C5
100
AcDbEntity
  8
0
100
AcDbDimension
  2
*D29
 10
0.5400000909924288
 20
0.2986378435672883
 30
0.0
 11
0.5400000909924252
 21
3.798637843567293
 31
0.0
 12
-15.85073130963056
 22
-10.67830496991097
 32
0.0
 71
     5
 42
7.000000000000007
  3
Standard
100
AcDbAlignedDimension
 13
2.176361008288949
 23
7.298637843567295
 33
0.0
 14
2.176361008288949
 24
0.2986378435672883
 34
0.0
 50
90.0
100
AcDbRotatedDimension
  0
ENDBLK
  5
4D3
330
4C5
100
AcDbEntity
  8
0
100
AcDbBlockEnd
  0
BLOCK
  5
55F
330
54D
100
AcDbEntity
  8
0
100
AcDbBlockBegin
  2
A$C5C515128
 70
     0
 10
0.0
 20
0.0
 30
0.0
  3
A$C5C515128
  1

  0
ARC
  5
54E
330
54D
100
AcDbEntity
  8
0
100
AcDbCircle
 10
27.28052081285802
 20
-3.475444845178468
 30
0.0
 40
4.908383944340481
100
AcDbArc
 50
82.45346965948643
 51
95.94837682707987
  0
ARC
  5
54F
330
54D
100
AcDbEntity
  8
0
100
AcDbCircle
 10
26.84176931416568
 20
0.7128508887518544
 30
0.0
 40
0.6971744649211892
100
AcDbArc
 50
95.75556440354848
 51
157.9579623191802
  0
ARC
  5
550
330
54D
100
AcDbEntity
  8
0
100
AcDbCircle
 10
25.58475896394638
 20
0.8031215906413656
 30
0.0
 40
0.6343783802531289
100
AcDbArc
 50
15.67247317064434
 51
164.3275268293533
  0
ARC
  5
551
330
54D
100
AcDbEntity
  8
0
100
AcDbCircle
 10
32.34490104029957
 20
1.364554165261642
 30
0.0
 40
0.526421544455859
100
AcDbArc
 50
266.3769071304872
 51
321.130499786413
  0
ARC
  5
552
330
54D
100
AcDbEntity
  8
0
100
AcDbCircle
 10
24.01241421324317
 20
0.4762691926658088
 30
0.0
 40
1.082961923110419
100
AcDbArc
 50
27.39065643742885
 51
62.57248125332186
  0
LINE
  5
553
330
54D
100
AcDbEntity
  8
0
100
AcDbLine
 10
32.91182981373472
 20
1.034199013078737
 30
0.0
 11
32.75476091378504
 21
1.034199013078744
 31
0.0
  0
ARC
  5
554
330
54D
100
AcDbEntity
  8
0
100
AcDbCircle
 10
24.97738214452334
 20
2.319026238826698
 30
0.0
 40
0.9971776544882086
100
AcDbArc
 50
191.4355483810846
 51
242.1313194588811
  0
LINE
  5
555
330
54D
100
AcDbEntity
  8
0
100
AcDbLine
 10
0.0000001096574209
 20
2.12132031445417
 30
0.0
 11
24.00000010965744
 21
2.121320314454171
 31
0.0
  0
LINE
  5
556
330
54D
100
AcDbEntity
  8
0
100
AcDbLine
 10
34.50000010965741
 20
-0.0000000291054687
 30
0.0
 11
34.50000010965741
 21
0.7493244302456344
 31
0.0
  0
LINE
  5
557
330
54D
100
AcDbEntity
  8
0
100
AcDbLine
 10
0.0000001096574209
 20
-0.0000000291054674
 30
0.0
 11
0.0000001096574209
 21
2.12132031445417
 31
0.0
  0
LINE
  5
558
330
54D
100
AcDbEntity
  8
0
100
AcDbLine
 10
0.0000001096574209
 20
-0.0000000291054674
 30
0.0
 11
34.50000010965741
 21
-0.0000000291054687
 31
0.0
  0
ARC
  5
559
330
54D
100
AcDbEntity
  8
0
100
AcDbCircle
 10
39.64059288486918
 20
68.02935214087909
 30
0.0
 40
67.58869888109619
100
AcDbArc
 50
261.9011228065431
 51
263.7749113125147
  0
ARC
  5
55A
330
54D
100
AcDbEntity
  8
0
100
AcDbCircle
 10
20.00153864094096
 20
-70.51937118754537
 30
0.0
 40
72.34502313610241
100
AcDbArc
 50
81.96116694528248
 51
83.71205102289135
  0
ARC
  5
55B
330
54D
100
AcDbEntity
  8
0
100
AcDbCircle
 10
33.28066665639351
 20
0.8978429680413235
 30
0.0
 40
0.3932347740482567
100
AcDbArc
 50
76.19887112551518
 51
159.7110479172343
  0
ARC
  5
55C
330
54D
100
AcDbEntity
  8
0
100
AcDbCircle
 10
34.92053677752458
 20
3.101117449826724
 30
0.0
 40
2.38909637645096
100
AcDbArc
 50
229.6742154828167
 51
259.8617856970448
  0
ENDBLK
  5
560
330
54D
100
AcDbEntity
  8
0
100
AcDbBlockEnd
  0
BLOCK
  5
5D7
330
5D3
100
AcDbEntity
  8
0
100
AcDbBlockBegin
  2
A$C0BB15F01
 70
     0
 10
0.0
 20
0.0
 30
0.0
  3
A$C0BB15F01
  1

  0
REGION
  5
5D4
330
5D3
100
AcDbEntity
  8
0
100
AcDbModelerGeometry
 70
     1
  1
koo li n o          
  1
ni ^ *+0;:,4 ^ *+0\^ [ nf ^ LR mnhqoqoqkjol QK o  
  1
mjqlffffffffffffff fqfffffffffffffffj:rooh n:rono 
  1
=0;& {rn {n {rn {rn |
  1
3*2/ {rn {rn {m {o |
  1
,7:33 {rn {rn {rn {l {rn {n |
  1
9><: {rn {rn {k {m {rn {j 90-(>-; ;0*=3: 0*+ |
  1
300/ {rn {rn {i {l |
  1
/3>1:r,*-9><: {rn kqmmggknggfmigggjl nqjfgnmjkhniofimol o o o n n o o 90-(>-;@) V V V V |
  1
<0:;8: {rn {h {g {rn {f 90-(>-; {k {rn |
  1
<0:;8: {rn {no {i {rn {nn -:):-,:; {k {rn |
  1
<0:;8: {rn {i {nm {rn {nl -:):-,:; {k {rn |
  1
:;8: {rn {nk {nj {i {ni 90-(>-; |
  1
<0:;8: {rn {nh {h {rn {ng 90-(>-; {k {rn |
  1
:;8: {rn {nf {nj {h {mo 90-(>-; |
  1
<0:;8: {rn {g {nh {rn {mn -:):-,:; {k {rn |
  1
:;8: {rn {nk {mm {g {ml 90-(>-; |
  1
):-+:' {rn {f {mk |
  1
):-+:' {rn {f {mj |
  1
:336/,:r<*-): {rn nqhjlffilmjgjjnllf mqjmnoojnhlngkjoji o o o n oqjologkljmgmknnhhf o o n V V |
  1
<0:;8: {rn {nm {no {rn {mi 90-(>-; {k {rn |
  1
:;8: {rn {nf {mh {no {mg 90-(>-; |
  1
):-+:' {rn {nn {mf |
  1
,+->687+r<*-): {rn nqmjofnnfhlolnoof oqjgijgfjmioogimllj o o n o V V |
  1
:;8: {rn {mm {lo {nm {ln 90-(>-; |
  1
):-+:' {rn {mn {lm |
  1
,+->687+r<*-): {rn mqmjhogoihgihfmjnh mqjmnoojnhlngkjoji o n o o V V |
  1
/061+ {rn mqmjhogoihgihfmjnh mqjmnoojnhlngkjoji o |
  1
/061+ {rn nqmjofnnfhlolnonin mqjmnoojnhlngkjoji o |
  1
:;8: {rn {mh {lo {nh {ll 90-(>-; |
  1
):-+:' {rn {ng {lk |
  1
,+->687+r<*-): {rn nqmjofnnfhlolnoof oqjgijgfjmioogimllj o n o o V V |
  1
/061+ {rn nqmjofnnfhlolnoof oqjgijgfjmioogimllj o |
  1
):-+:' {rn {mi {lj |
  1
:336/,:r<*-): {rn lqkkmmflkkkgomionm mqgnjnngjmogkmkolf o o o n oqflgjngifgkmjnfjik o o n V V |
  1
/061+ {rn mqjjnojonohikhjfhj mqjmnoojnhlngkjoji o |
  1
:336/,:r<*-): {rn jqlnlknnfhlolnoonf oqjgijgfjmiooginmif o o o n mqklhjoooooooooohn o o n V V |
  1
/061+ {rn hqhjofnnfhlolnoof oqjgijgfjmioogimllj o |
  1
/061+ {rn lqmjifolihgfhnjigm nqgfjofmkkkomhgmkl o |
  0
ENDBLK
  5
5D8
330
5D3
100
AcDbEntity
  8
0
100
AcDbBlockEnd
  0
ENDSEC
  0
SECTION
  2
ENTITIES
  0
3DSOLID
  5
5D9
330
1F
100
AcDbEntity
  8
0
100
AcDbModelerGeometry
 70
     1
  1
koo kj n o          
  1
ni ^ *+0;:,4 ^ *+0\^ [ nf ^ LR mnhqoqoqkjol QK o  
  1
mjqlffffffffffffff fqfffffffffffffffj:rooh n:rono 
  1
=0;& {rn {n {rn {rn |
  1
3*2/ {rn {rn {m {o |
  1
,7:33 {rn {rn {rn {l {rn {n |
  1
9><: {rn {k {j {m {rn {i 90-(>-; ,6183: |
  1
9><: {rn {h {g {m {rn {f 90-(>-; ,6183: |
  1
300/ {rn {no {nn {l |
  1
<01:r,*-9><: {rn mqkghfgilfgjkmgkog o nqnjlnjlkmonlmknmn iqnmlmllffjhlihii:ronh o n rnqflkknjikhnhjgfmf o nqngkkghfijmihmjij:roni n V V o n nqflkknjikhnhjgfmf 90-(>-; V V V V |
  1
9><: {rn {nm {nl {m {rn {nk 90-(>-; ,6183: |
  1
300/ {rn {nj {ni {k |
  1
+0-*,r,*-9><: {rn mqkghfgilfgjkmgkog o mqnfnlgnkhnhhnjgjm iqnmlmllffjhlihii:ronh o n mqmmgjmgffkgllhfnm roqflgjngifgkmjnfjik n o riqnmlmllffjhlihii:ronh 90-(>-;@) V V V V |
  1
300/ {rn {rn {nh {l |
  1
<0:;8: {rn {nn {nn {ng {nf -:):-,:; {j {rn |
  1
9><: {rn {mo {mn {m {rn {mm 90-(>-; ,6183: |
  1
300/ {rn {rn {ml {h |
  1
,/7:-:r,*-9><: {rn mqkghfgilfgjkmgkog o kqoimkfffffffffgjg mqklhjoooooooooohn n o o o o n 90-(>-;@) V V V V |
  1
300/ {rn {rn {ng {k |
  1
<0:;8: {rn {ni {ni {ml {mk -:):-,:; {g {rn |
  1
<0:;8: {rn {nh {nh {mj {mi 90-(>-; {no {rn |
  1
<0:;8: {rn {ng {ng {nn {nf 90-(>-; {nj {rn |
  1
:;8: {rn {mh {mh {ng {mg 90-(>-; |
  1
9><: {rn {rn {mf {m {rn {lo 90-(>-; ,6183: |
  1
300/ {rn {rn {ln {nm |
  1
/3>1:r,*-9><: {rn nqjmohhgjhkfjkggf o o riqnmlmllffjhlihii:ronh o rn rn o iqnmlmllffjhlihii:ronh 90-(>-;@) V V V V |
  1
<0:;8: {rn {ml {ml {ni {mk 90-(>-; {nl {rn |
  1
:;8: {rn {lm {lm {ml {ll 90-(>-; |
  1
<0:;8: {rn {mj {mj {nh {mi -:):-,:; {mf {rn |
  1
:;8: {rn {lk {lk {nh {lj 90-(>-; |
  1
):-+:' {rn {nf {li |
  1
:336/,:r<*-): {rn mqkghfgilfgjkmgkog o nqloonlgnlkinijgnj iqnmlmllffjhlihii:ronh o n rnqflkknjikhnhjgfmf o nqngkkghfijmihmjij:roni n V V |
  1
300/ {rn {lh {mj {mo |
  1
+0-*,r,*-9><: {rn mqkghfgilfgjkmgkog o oqjologkljmgmknnhhf iqnmlmllffjhlihii:ronh o n nqflkknjikhnhjgfmf oqjologkljmgmknnhhf n o riqnmlmllffjhlihii:ronh 90-(>-;@) V V V V |
  1
<0:;8: {rn {ln {ln {lg {lf -:):-,:; {mn {rn |
  1
):-+:' {rn {mk {ko |
  1
:336/,:r<*-): {rn mqkghfgilfgjkmgkog o mqoojffnhojfkojjmn iqnmlmllffjhlihii:ronh o n rnqlogjomfngonfmnni o gqonmmifjjnnljffji:ronh n V V |
  1
):-+:' {rn {mi {kn |
  1
:336/,:r<*-): {rn mqkghfgilfgjkmgkog o nqooinighojikgmlji iqnmlmllffjhlihii:ronh o n rnqflkknjikhnhjgfmf o nqngkkghfijmihmjij:roni n V V |
  1
/061+ {rn oqjjljhohjnliifkhgf o nqloonlgnlkinijgnj |
  1
300/ {rn {rn {lg {mo |
  1
<0:;8: {rn {lg {lg {ln {lf 90-(>-; {lh {rn |
  1
:;8: {rn {km {km {lg {kl 90-(>-; |
  1
/061+ {rn nqnhfkglkgojmlimfm o mqoojffnhojfkojjmn |
  1
/061+ {rn oqjjljhohjnliifkhgf o nqooinighojikgmlji |
  1
):-+:' {rn {lf {kk |
  1
:336/,:r<*-): {rn mqkghfgilfgjkmgkog o o iqnmlmllffjhlihii:ronh o n rnqflkknjikhnhjgfmf o nqngkkghfijmihmjij:roni n V V |
  1
/061+ {rn oqjjljhohjnliifkhgf o o |
  0
ENDSEC
  0
SECTION
  2
OBJECTS
  0
DICTIONARY
  5
C
330
0
100
AcDbDictionary
281
     1
  3
ACAD_2007HEADERVARS_RT
350
5E2
  3
ACAD_ASSOCPERSSUBENTMANAGER
350
207
  3
ACAD_BACKGROUND
350
24E
  3
ACAD_CIP_PREVIOUS_PRODUCT_INFO
350
20A
  3
ACAD_COLOR
350
B5
  3
ACAD_GROUP
350
D
  3
ACAD_LAYOUT
350
1A
  3
ACAD_MATERIAL
350
B4
  3
ACAD_MLEADERSTYLE
350
1B3
  3
ACAD_MLINESTYLE
350
17
  3
ACAD_PERSUBENTMGR
350
1F9
  3
ACAD_PLOTSETTINGS
350
19
  3
ACAD_PLOTSTYLENAME
350
E
  3
ACAD_SCALELIST
350
191
  3
ACAD_TABLESTYLE
350
B6
  3
ACAD_VISUALSTYLE
350
180
  3
ACDB_RECOMPOSE_DATA
350
5E0
  3
AcDbVariableDictionary
350
15F
  3
AEC_PROPERTY_SET_DEFS
350
219
  3
DWGPROPS
350
5E1
  0
DICTIONARY
  5
20D
330
2
100
AcDbDictionary
280
     1
281
     1
  3
ACAD_LAYERSTATES
360
20E
  0
DICTIONARY
  5
255
330
10
100
AcDbDictionary
280
     1
281
     1
  3
ADSK_XREC_LAYER_RECONCILED
360
256
  0
DICTIONARY
  5
257
330
AB
100
AcDbDictionary
280
     1
281
     1
  3
ADSK_XREC_LAYER_RECONCILED
360
258
  0
DICTIONARY
  5
5C4
330
1F
100
AcDbDictionary
280
     1
281
     1
  3
ACAD_SORTENTS
360
5C5
  0
DICTIONARY
  5
55D
330
54D
100
AcDbDictionary
280
     1
281
     1
  3
ACAD_SORTENTS
360
55E
  0
DICTIONARY
  5
5D5
330
5D3
100
AcDbDictionary
280
     1
281
     1
  3
ACAD_SORTENTS
360
5D6
  0
DICTIONARY
  5
4CD
330
4CC
100
AcDbDictionary
280
     1
281
     1
  3
ACAD_DIMASSOC
360
4CE
  0
DICTIONARY
  5
4D0
330
4CF
100
AcDbDictionary
280
     1
281
     1
  3
ACAD_DIMASSOC
360
4D1
  0
DICTIONARY
  5
5E2
102
{ACAD_REACTORS
330
C
102
}
330
C
100
AcDbDictionary
281
     1
  3
DIMFXL
350
5E3
  3
INTERFEREVPVS
350
5E4
  0
ACDBASSOCPERSSUBENTMANAGER
  5
207
102
{ACAD_REACTORS
330
C
102
}
330
C
100
AcDbAssocPersSubentManager
 90
        1
 90
        3
 90
        0
 90
        2
 90
        4
 90
        0
 90
        0
 90
        0
290
     0
  0
DICTIONARY
  5
24E
102
{ACAD_REACTORS
330
C
102
}
330
C
100
AcDbDictionary
281
     1
  0
XRECORD
  5
20A
102
{ACAD_REACTORS
330
C
102
}
330
C
100
AcDbXrecord
280
     1
300
ACD
300
2012
300
ACD_F_S
  0
DICTIONARY
  5
B5
102
{ACAD_REACTORS
330
C
102
}
330
C
100
AcDbDictionary
281
     1
  0
DICTIONARY
  5
D
102
{ACAD_REACTORS
330
C
102
}
330
C
100
AcDbDictionary
281
     1
  0
DICTIONARY
  5
1A
102
{ACAD_REACTORS
330
C
102
}
330
C
100
AcDbDictionary
281
     1
  3
Layout1
350
1E
  3
Layout2
350
26
  3
Model
350
22
  0
DICTIONARY
  5
B4
102
{ACAD_REACTORS
330
C
102
}
330
C
100
AcDbDictionary
281
     1
  3
ByBlock
350
170
  3
ByLayer
350
168
  3
Global
350
178
  0
DICTIONARY
  5
1B3
102
{ACAD_REACTORS
330
C
102
}
330
C
100
AcDbDictionary
281
     1
  3
Standard
350
1B4
  0
DICTIONARY
  5
17
102
{ACAD_REACTORS
330
C
102
}
330
C
100
AcDbDictionary
281
     1
  3
Standard
350
18
  0
ACDBPERSSUBENTMANAGER
  5
1F9
102
{ACAD_REACTORS
330
C
102
}
330
C
100
AcDbPersSubentManager
 90
        2
 90
        0
 90
        2
 90
        4
 90
        0
 90
        2
 90
        1
 90
        2
  0
DICTIONARY
  5
19
102
{ACAD_REACTORS
330
C
102
}
330
C
100
AcDbDictionary
281
     1
  0
ACDBDICTIONARYWDFLT
  5
E
102
{ACAD_REACTORS
330
C
102
}
330
C
100
AcDbDictionary
281
     1
  3
Normal
350
F
100
AcDbDictionaryWithDefault
340
F
  0
DICTIONARY
  5
191
102
{ACAD_REACTORS
330
C
102
}
330
C
100
AcDbDictionary
281
     1
  3
A0
350
192
  3
A1
350
193
  3
A2
350
194
  3
A3
350
195
  3
A4
350
196
  3
A5
350
197
  3
A6
350
198
  3
A7
350
199
  3
A8
350
19A
  3
A9
350
19B
  3
B0
350
19C
  3
B1
350
19D
  3
B2
350
19E
  3
B3
350
19F
  3
B4
350
1A0
  3
B5
350
1A1
  3
B6
350
1A2
  3
B7
350
1A3
  3
B8
350
1A4
  3
B9
350
1A5
  3
C0
350
1A6
  3
C1
350
1A7
  3
C2
350
1A8
  3
C3
350
1A9
  3
C4
350
1AA
  3
C5
350
1AB
  3
C6
350
1AC
  3
C7
350
1AD
  3
C8
350
1AE
  3
C9
350
1AF
  3
D0
350
1B0
  3
D1
350
1B1
  3
D2
350
1B2
  0
DICTIONARY
  5
B6
102
{ACAD_REACTORS
330
C
102
}
330
C
100
AcDbDictionary
281
     1
  3
Standard
350
B7
  0
DICTIONARY
  5
180
102
{ACAD_REACTORS
330
C
102
}
330
C
100
AcDbDictionary
281
     1
  3
2dWireframe
350
186
  3
3D Hidden
350
188
  3
3dWireframe
350
187
  3
Basic
350
185
  3
Brighten
350
18C
  3
ColorChange
350
190
  3
Conceptual
350
189
  3
Dim
350
18B
  3
EdgeColorOff
350
205
  3
Facepattern
350
18F
  3
Flat
350
181
  3
FlatWithEdges
350
182
  3
Gouraud
350
183
  3
GouraudWithEdges
350
184
  3
Hidden
350
1FD
  3
JitterOff
350
203
  3
Linepattern
350
18E
  3
OverhangOff
350
204
  3
Realistic
350
18A
  3
Shaded
350
202
  3
Shaded with edges
350
201
  3
Shades of Gray
350
1FE
  3
Sketchy
350
1FF
  3
Thicken
350
18D
  3
Wireframe
350
1FC
  3
X-Ray
350
200
  0
XRECORD
  5
5E0
102
{ACAD_REACTORS
330
C
102
}
330
C
100
AcDbXrecord
280
     1
 90
        1
330
B7
  0
DICTIONARY
  5
15F
102
{ACAD_REACTORS
330
C
102
}
330
C
100
AcDbDictionary
281
     1
  3
CANNOSCALE
350
1E5
  3
CMLEADERSTYLE
350
1E3
  3
CTABLESTYLE
350
160
  3
DIMASSOC
350
25C
  3
INDEXCTL
350
25A
  3
LIGHTINGUNITS
350
1E6
  3
MSLTSCALE
350
1E4
  3
SOLIDHIST
350
25D
  3
SORTENTS
350
259
  3
XCLIPFRAME
350
25B
  0
DICTIONARY
  5
219
102
{ACAD_REACTORS
330
C
102
}
330
C
100
AcDbDictionary
281
     1
  0
XRECORD
  5
5E1
102
{ACAD_REACTORS
330
C
102
}
330
C
100
AcDbXrecord
280
     1
  1
DWGPROPS COOKIE
  2

  3

  4

  6

  7

  8
Haden
  9

300
=
301
=
302
=
303
=
304
=
305
=
306
=
307
=
308
=
309
=
 40
0.008889849537037
 41
2456063.413304375
 42
2456063.422193797
  1

 90
        0
  0
DICTIONARY
  5
20E
102
{ACAD_REACTORS
330
20D
102
}
330
20D
100
AcDbDictionary
281
     1
  0
XRECORD
  5
256
102
{ACAD_REACTORS
330
255
102
}
330
255
100
AcDbXrecord
280
     1
290
     1
  0
XRECORD
  5
258
102
{ACAD_REACTORS
330
257
102
}
330
257
100
AcDbXrecord
280
     1
290
     1
  0
SORTENTSTABLE
  5
5C5
102
{ACAD_REACTORS
330
5C4
102
}
330
5C4
100
AcDbSortentsTable
330
1F
  0
SORTENTSTABLE
  5
55E
102
{ACAD_REACTORS
330
55D
102
}
330
55D
100
AcDbSortentsTable
330
54D
  0
SORTENTSTABLE
  5
5D6
102
{ACAD_REACTORS
330
5D5
102
}
330
5D5
100
AcDbSortentsTable
330
5D3
  0
DIMASSOC
  5
4CE
102
{ACAD_REACTORS
330
4CD
102
}
330
4CD
100
AcDbDimAssoc
330
4CC
 90
        3
 70
     0
 71
     0
  1
AcDbOsnapPointRef
 72
    13
331
4CB
 73
     2
 91
        0
 40
0.0
 10
0.0
 20
0.0
 30
2.000000000000000E+50
 75
     0
  1
AcDbOsnapPointRef
 72
     1
331
4CB
 73
     2
 91
        0
 40
1.0
 10
0.0
 20
0.0
 30
2.000000000000000E+50
 75
     0
  0
DIMASSOC
  5
4D1
102
{ACAD_REACTORS
330
4D0
102
}
330
4D0
100
AcDbDimAssoc
330
4CF
 90
        3
 70
     0
 71
     0
  1
AcDbOsnapPointRef
 72
     1
331
4CA
 73
     2
 91
        0
 40
1.0
 10
0.0
 20
0.0
 30
2.000000000000000E+50
 75
     0
  1
AcDbOsnapPointRef
 72
     6
331
4CA
 73
     2
 91
        0
 40
0.0
 10
0.0
 20
0.0
 30
0.0
332
4C7
 74
     2
 92
        0
 75
     0
  0
XRECORD
  5
5E3
102
{ACAD_REACTORS
330
5E2
102
}
330
5E2
100
AcDbXrecord
280
     1
 40
0.18
  0
XRECORD
  5
5E4
102
{ACAD_REACTORS
330
5E2
102
}
330
5E2
100
AcDbXrecord
280
     1
340
187
  0
LAYOUT
  5
1E
102
{ACAD_XDICTIONARY
360
5E5
102
}
102
{ACAD_REACTORS
330
1A
102
}
330
1A
100
AcDbPlotSettings
  1

  2

  4

  6

 40
0.0
 41
0.0
 42
0.0
 43
0.0
 44
0.0
 45
0.0
 46
0.0
 47
0.0
 48
0.0
 49
0.0
140
0.0
141
0.0
142
1.0
143
1.0
 70
   688
 72
     0
 73
     0
 74
     5
  7

 75
    16
147
1.0
148
0.0
149
0.0
100
AcDbLayout
  1
Layout1
 70
     1
 71
     1
 10
0.0
 20
0.0
 11
12.0
 21
9.0
 12
0.0
 22
0.0
 32
0.0
 14
1.000000000000000E+20
 24
1.000000000000000E+20
 34
1.000000000000000E+20
 15
-1.000000000000000E+20
 25
-1.000000000000000E+20
 35
-1.000000000000000E+20
146
0.0
 13
0.0
 23
0.0
 33
0.0
 16
1.0
 26
0.0
 36
0.0
 17
0.0
 27
1.0
 37
0.0
 76
     0
330
1B
  0
LAYOUT
  5
26
102
{ACAD_XDICTIONARY
360
5E9
102
}
102
{ACAD_REACTORS
330
1A
102
}
330
1A
100
AcDbPlotSettings
  1

  2

  4

  6

 40
0.0
 41
0.0
 42
0.0
 43
0.0
 44
0.0
 45
0.0
 46
0.0
 47
0.0
 48
0.0
 49
0.0
140
0.0
141
0.0
142
1.0
143
1.0
 70
   688
 72
     0
 73
     0
 74
     5
  7

 75
    16
147
1.0
148
0.0
149
0.0
100
AcDbLayout
  1
Layout2
 70
     1
 71
     2
 10
0.0
 20
0.0
 11
12.0
 21
9.0
 12
0.0
 22
0.0
 32
0.0
 14
0.0
 24
0.0
 34
0.0
 15
0.0
 25
0.0
 35
0.0
146
0.0
 13
0.0
 23
0.0
 33
0.0
 16
1.0
 26
0.0
 36
0.0
 17
0.0
 27
1.0
 37
0.0
 76
     0
330
23
  0
LAYOUT
  5
22
102
{ACAD_XDICTIONARY
360
5E7
102
}
102
{ACAD_REACTORS
330
1A
102
}
330
1A
100
AcDbPlotSettings
  1

  2

  4

  6

 40
0.0
 41
0.0
 42
0.0
 43
0.0
 44
0.0
 45
0.0
 46
0.0
 47
0.0
 48
0.0
 49
0.0
140
0.0
141
0.0
142
1.0
143
1.0
 70
  1712
 72
     0
 73
     0
 74
     0
  7

 75
     0
147
1.0
148
0.0
149
0.0
100
AcDbLayout
  1
Model
 70
     1
 71
     0
 10
0.0
 20
0.0
 11
12.0
 21
9.0
 12
0.0
 22
0.0
 32
0.0
 14
0.0
 24
0.0
 34
0.0
 15
0.0
 25
0.0
 35
0.0
146
0.0
 13
0.0
 23
0.0
 33
0.0
 16
1.0
 26
0.0
 36
0.0
 17
0.0
 27
1.0
 37
0.0
 76
     0
330
1F
331
166
  0
MATERIAL
  5
170
102
{ACAD_XDICTIONARY
360
171
102
}
102
{ACAD_REACTORS
330
B4
102
}
330
B4
100
AcDbMaterial
  1
ByBlock
 72
     0
 43
0.0208333333333333
 43
0.0
 43
0.0
 43
0.0
 43
0.0
 43
0.0208333333333333
 43
0.0
 43
0.0
 43
0.0
 43
0.0
 43
1.0
 43
0.0
 43
0.0
 43
0.0
 43
0.0
 43
1.0
 77
     0
 47
0.0208333333333333
 47
0.0
 47
0.0
 47
0.0
 47
0.0
 47
0.0208333333333333
 47
0.0
 47
0.0
 47
0.0
 47
0.0
 47
1.0
 47
0.0
 47
0.0
 47
0.0
 47
0.0
 47
1.0
171
     0
 49
0.0208333333333333
 49
0.0
 49
0.0
 49
0.0
 49
0.0
 49
0.0208333333333333
 49
0.0
 49
0.0
 49
0.0
 49
0.0
 49
1.0
 49
0.0
 49
0.0
 49
0.0
 49
0.0
 49
1.0
175
     0
142
0.0208333333333333
142
0.0
142
0.0
142
0.0
142
0.0
142
0.0208333333333333
142
0.0
142
0.0
142
0.0
142
0.0
142
1.0
142
0.0
142
0.0
142
0.0
142
0.0
142
1.0
179
     0
144
0.0208333333333333
144
0.0
144
0.0
144
0.0
144
0.0
144
0.0208333333333333
144
0.0
144
0.0
144
0.0
144
0.0
144
1.0
144
0.0
144
0.0
144
0.0
144
0.0
144
1.0
147
0.0208333333333333
147
0.0
147
0.0
147
0.0
147
0.0
147
0.0208333333333333
147
0.0
147
0.0
147
0.0
147
0.0
147
1.0
147
0.0
147
0.0
147
0.0
147
0.0
147
1.0
  0
MATERIAL
  5
168
102
{ACAD_XDICTIONARY
360
169
102
}
102
{ACAD_REACTORS
330
B4
102
}
330
B4
100
AcDbMaterial
  1
ByLayer
 72
     0
 43
0.0208333333333333
 43
0.0
 43
0.0
 43
0.0
 43
0.0
 43
0.0208333333333333
 43
0.0
 43
0.0
 43
0.0
 43
0.0
 43
1.0
 43
0.0
 43
0.0
 43
0.0
 43
0.0
 43
1.0
 77
     0
 47
0.0208333333333333
 47
0.0
 47
0.0
 47
0.0
 47
0.0
 47
0.0208333333333333
 47
0.0
 47
0.0
 47
0.0
 47
0.0
 47
1.0
 47
0.0
 47
0.0
 47
0.0
 47
0.0
 47
1.0
171
     0
 49
0.0208333333333333
 49
0.0
 49
0.0
 49
0.0
 49
0.0
 49
0.0208333333333333
 49
0.0
 49
0.0
 49
0.0
 49
0.0
 49
1.0
 49
0.0
 49
0.0
 49
0.0
 49
0.0
 49
1.0
175
     0
142
0.0208333333333333
142
0.0
142
0.0
142
0.0
142
0.0
142
0.0208333333333333
142
0.0
142
0.0
142
0.0
142
0.0
142
1.0
142
0.0
142
0.0
142
0.0
142
0.0
142
1.0
179
     0
144
0.0208333333333333
144
0.0
144
0.0
144
0.0
144
0.0
144
0.0208333333333333
144
0.0
144
0.0
144
0.0
144
0.0
144
1.0
144
0.0
144
0.0
144
0.0
144
0.0
144
1.0
147
0.0208333333333333
147
0.0
147
0.0
147
0.0
147
0.0
147
0.0208333333333333
147
0.0
147
0.0
147
0.0
147
0.0
147
1.0
147
0.0
147
0.0
147
0.0
147
0.0
147
1.0
  0
MATERIAL
  5
178
102
{ACAD_XDICTIONARY
360
179
102
}
102
{ACAD_REACTORS
330
B4
102
}
330
B4
100
AcDbMaterial
  1
Global
 72
     0
 43
0.0208333333333333
 43
0.0
 43
0.0
 43
0.0
 43
0.0
 43
0.0208333333333333
 43
0.0
 43
0.0
 43
0.0
 43
0.0
 43
1.0
 43
0.0
 43
0.0
 43
0.0
 43
0.0
 43
1.0
 77
     0
 47
0.0208333333333333
 47
0.0
 47
0.0
 47
0.0
 47
0.0
 47
0.0208333333333333
 47
0.0
 47
0.0
 47
0.0
 47
0.0
 47
1.0
 47
0.0
 47
0.0
 47
0.0
 47
0.0
 47
1.0
171
     0
 49
0.0208333333333333
 49
0.0
 49
0.0
 49
0.0
 49
0.0
 49
0.0208333333333333
 49
0.0
 49
0.0
 49
0.0
 49
0.0
 49
1.0
 49
0.0
 49
0.0
 49
0.0
 49
0.0
 49
1.0
175
     0
142
0.0208333333333333
142
0.0
142
0.0
142
0.0
142
0.0
142
0.0208333333333333
142
0.0
142
0.0
142
0.0
142
0.0
142
1.0
142
0.0
142
0.0
142
0.0
142
0.0
142
1.0
179
     0
144
0.0208333333333333
144
0.0
144
0.0
144
0.0
144
0.0
144
0.0208333333333333
144
0.0
144
0.0
144
0.0
144
0.0
144
1.0
144
0.0
144
0.0
144
0.0
144
0.0
144
1.0
147
0.0208333333333333
147
0.0
147
0.0
147
0.0
147
0.0
147
0.0208333333333333
147
0.0
147
0.0
147
0.0
147
0.0
147
1.0
147
0.0
147
0.0
147
0.0
147
0.0
147
1.0
  0
MLEADERSTYLE
  5
1B4
102
{ACAD_XDICTIONARY
360
5DE
102
}
102
{ACAD_REACTORS
330
1B3
102
}
330
1B3
100
AcDbMLeaderStyle
170
     2
171
     1
172
     0
 90
        2
 40
0.0
 41
0.0
173
     1
 91
-1056964608
340
14
 92
       -2
290
     1
 42
0.09
291
     1
 43
0.36
  3
Standard
 44
0.18
300

342
11
174
     1
178
     6
175
     1
176
     0
 93
-1056964608
 45
0.18
292
     0
297
     0
 46
0.18
 94
-1056964608
 47
1.0
 49
1.0
140
1.0
293
     1
141
0.0
294
     1
177
     0
142
1.0
295
     0
296
     0
143
0.125
1001
ACAD_MLEADERVER
1070
     2
  0
MLINESTYLE
  5
18
102
{ACAD_REACTORS
330
17
102
}
330
17
100
AcDbMlineStyle
  2
STANDARD
 70
     0
  3

 62
   256
 51
90.0
 52
90.0
 71
     2
 49
0.5
 62
   256
  6
BYLAYER
 49
-0.5
 62
   256
  6
BYLAYER
  0
ACDBPLACEHOLDER
  5
F
102
{ACAD_REACTORS
330
E
102
}
330
E
  0
SCALE
  5
192
102
{ACAD_REACTORS
330
191
102
}
330
191
100
AcDbScale
 70
     0
300
1:1
140
1.0
141
1.0
290
     1
  0
SCALE
  5
193
102
{ACAD_REACTORS
330
191
102
}
330
191
100
AcDbScale
 70
     0
300
1:2
140
1.0
141
2.0
290
     0
  0
SCALE
  5
194
102
{ACAD_REACTORS
330
191
102
}
330
191
100
AcDbScale
 70
     0
300
1:4
140
1.0
141
4.0
290
     0
  0
SCALE
  5
195
102
{ACAD_REACTORS
330
191
102
}
330
191
100
AcDbScale
 70
     0
300
1:5
140
1.0
141
5.0
290
     0
  0
SCALE
  5
196
102
{ACAD_REACTORS
330
191
102
}
330
191
100
AcDbScale
 70
     0
300
1:8
140
1.0
141
8.0
290
     0
  0
SCALE
  5
197
102
{ACAD_REACTORS
330
191
102
}
330
191
100
AcDbScale
 70
     0
300
1:10
140
1.0
141
10.0
290
     0
  0
SCALE
  5
198
102
{ACAD_REACTORS
330
191
102
}
330
191
100
AcDbScale
 70
     0
300
1:16
140
1.0
141
16.0
290
     0
  0
SCALE
  5
199
102
{ACAD_REACTORS
330
191
102
}
330
191
100
AcDbScale
 70
     0
300
1:20
140
1.0
141
20.0
290
     0
  0
SCALE
  5
19A
102
{ACAD_REACTORS
330
191
102
}
330
191
100
AcDbScale
 70
     0
300
1:30
140
1.0
141
30.0
290
     0
  0
SCALE
  5
19B
102
{ACAD_REACTORS
330
191
102
}
330
191
100
AcDbScale
 70
     0
300
1:40
140
1.0
141
40.0
290
     0
  0
SCALE
  5
19C
102
{ACAD_REACTORS
330
191
102
}
330
191
100
AcDbScale
 70
     0
300
1:50
140
1.0
141
50.0
290
     0
  0
SCALE
  5
19D
102
{ACAD_REACTORS
330
191
102
}
330
191
100
AcDbScale
 70
     0
300
1:100
140
1.0
141
100.0
290
     0
  0
SCALE
  5
19E
102
{ACAD_REACTORS
330
191
102
}
330
191
100
AcDbScale
 70
     0
300
2:1
140
2.0
141
1.0
290
     0
  0
SCALE
  5
19F
102
{ACAD_REACTORS
330
191
102
}
330
191
100
AcDbScale
 70
     0
300
4:1
140
4.0
141
1.0
290
     0
  0
SCALE
  5
1A0
102
{ACAD_REACTORS
330
191
102
}
330
191
100
AcDbScale
 70
     0
300
8:1
140
8.0
141
1.0
290
     0
  0
SCALE
  5
1A1
102
{ACAD_REACTORS
330
191
102
}
330
191
100
AcDbScale
 70
     0
300
10:1
140
10.0
141
1.0
290
     0
  0
SCALE
  5
1A2
102
{ACAD_REACTORS
330
191
102
}
330
191
100
AcDbScale
 70
     0
300
100:1
140
100.0
141
1.0
290
     0
  0
SCALE
  5
1A3
102
{ACAD_REACTORS
330
191
102
}
330
191
100
AcDbScale
 70
     0
300
1/128" = 1'-0"
140
0.0078125
141
12.0
290
     0
  0
SCALE
  5
1A4
102
{ACAD_REACTORS
330
191
102
}
330
191
100
AcDbScale
 70
     0
300
1/64" = 1'-0"
140
0.015625
141
12.0
290
     0
  0
SCALE
  5
1A5
102
{ACAD_REACTORS
330
191
102
}
330
191
100
AcDbScale
 70
     0
300
1/32" = 1'-0"
140
0.03125
141
12.0
290
     0
  0
SCALE
  5
1A6
102
{ACAD_REACTORS
330
191
102
}
330
191
100
AcDbScale
 70
     0
300
1/16" = 1'-0"
140
0.0625
141
12.0
290
     0
  0
SCALE
  5
1A7
102
{ACAD_REACTORS
330
191
102
}
330
191
100
AcDbScale
 70
     0
300
3/32" = 1'-0"
140
0.09375
141
12.0
290
     0
  0
SCALE
  5
1A8
102
{ACAD_REACTORS
330
191
102
}
330
191
100
AcDbScale
 70
     0
300
1/8" = 1'-0"
140
0.125
141
12.0
290
     0
  0
SCALE
  5
1A9
102
{ACAD_REACTORS
330
191
102
}
330
191
100
AcDbScale
 70
     0
300
3/16" = 1'-0"
140
0.1875
141
12.0
290
     0
  0
SCALE
  5
1AA
102
{ACAD_REACTORS
330
191
102
}
330
191
100
AcDbScale
 70
     0
300
1/4" = 1'-0"
140
0.25
141
12.0
290
     0
  0
SCALE
  5
1AB
102
{ACAD_REACTORS
330
191
102
}
330
191
100
AcDbScale
 70
     0
300
3/8" = 1'-0"
140
0.375
141
12.0
290
     0
  0
SCALE
  5
1AC
102
{ACAD_REACTORS
330
191
102
}
330
191
100
AcDbScale
 70
     0
300
1/2" = 1'-0"
140
0.5
141
12.0
290
     0
  0
SCALE
  5
1AD
102
{ACAD_REACTORS
330
191
102
}
330
191
100
AcDbScale
 70
     0
300
3/4" = 1'-0"
140
0.75
141
12.0
290
     0
  0
SCALE
  5
1AE
102
{ACAD_REACTORS
330
191
102
}
330
191
100
AcDbScale
 70
     0
300
1" = 1'-0"
140
1.0
141
12.0
290
     0
  0
SCALE
  5
1AF
102
{ACAD_REACTORS
330
191
102
}
330
191
100
AcDbScale
 70
     0
300
1-1/2" = 1'-0"
140
1.5
141
12.0
290
     0
  0
SCALE
  5
1B0
102
{ACAD_REACTORS
330
191
102
}
330
191
100
AcDbScale
 70
     0
300
3" = 1'-0"
140
3.0
141
12.0
290
     0
  0
SCALE
  5
1B1
102
{ACAD_REACTORS
330
191
102
}
330
191
100
AcDbScale
 70
     0
300
6" = 1'-0"
140
6.0
141
12.0
290
     0
  0
SCALE
  5
1B2
102
{ACAD_REACTORS
330
191
102
}
330
191
100
AcDbScale
 70
     0
300
1'-0" = 1'-0"
140
12.0
141
12.0
290
     0
  0
TABLESTYLE
  5
B7
102
{ACAD_XDICTIONARY
360
1E0
102
}
102
{ACAD_REACTORS
330
B6
102
}
330
B6
100
AcDbTableStyle
  3
Standard
 70
     0
 71
     0
 40
0.06
 41
0.06
280
     0
281
     0
  7
Standard
140
0.18
170
     2
 62
     0
 63
     7
283
     0
274
    -2
284
     1
 64
     0
275
    -2
285
     1
 65
     0
276
    -2
286
     1
 66
     0
277
    -2
287
     1
 67
     0
278
    -2
288
     1
 68
     0
279
    -2
289
     1
 69
     0
  7
Standard
140
0.25
170
     5
 62
     0
 63
     7
283
     0
274
    -2
284
     1
 64
     0
275
    -2
285
     1
 65
     0
276
    -2
286
     1
 66
     0
277
    -2
287
     1
 67
     0
278
    -2
288
     1
 68
     0
279
    -2
289
     1
 69
     0
  7
Standard
140
0.18
170
     5
 62
     0
 63
     7
283
     0
274
    -2
284
     1
 64
     0
275
    -2
285
     1
 65
     0
276
    -2
286
     1
 66
     0
277
    -2
287
     1
 67
     0
278
    -2
288
     1
 68
     0
279
    -2
289
     1
 69
     0
  0
VISUALSTYLE
  5
186
102
{ACAD_XDICTIONARY
360
5F9
102
}
102
{ACAD_REACTORS
330
180
102
}
330
180
100
AcDbVisualStyle
  2
2dWireframe
 70
     4
 71
     0
 72
     2
 73
     0
 90
        0
 40
-0.6
 41
-30.0
 62
     5
 63
     7
 74
     1
 91
        4
 64
     7
 65
   257
 75
     1
175
     1
 42
1.0
 92
        0
 66
   257
 43
1.0
 76
     1
 77
     6
 78
     2
 67
     7
 79
     5
170
     0
171
     0
290
     0
174
     0
 93
        1
 44
0.0
173
     0
291
     0
 45
0.0
1001
ACAD
1000
AcDbSavedByObjectVersion
1070
     0
  0
VISUALSTYLE
  5
188
102
{ACAD_XDICTIONARY
360
5FD
102
}
102
{ACAD_REACTORS
330
180
102
}
330
180
100
AcDbVisualStyle
  2
3D Hidden
 70
     6
 71
     1
 72
     2
 73
     2
 90
        0
 40
-0.6
 41
-30.0
 62
     5
 63
     7
 74
     2
 91
        2
 64
     7
 65
   257
 75
     2
175
     1
 42
40.0
 92
        0
 66
   257
 43
1.0
 76
     1
 77
     6
 78
     2
 67
     7
 79
     3
170
     0
171
     0
290
     0
174
     0
 93
        1
 44
0.0
173
     0
291
     0
 45
0.0
1001
ACAD
1000
AcDbSavedByObjectVersion
1070
     0
  0
VISUALSTYLE
  5
187
102
{ACAD_XDICTIONARY
360
5FB
102
}
102
{ACAD_REACTORS
330
180
102
}
330
180
100
AcDbVisualStyle
  2
3dWireframe
 70
     5
 71
     0
 72
     2
 73
     0
 90
        0
 40
-0.6
 41
-30.0
 62
     5
 63
     7
 74
     1
 91
        4
 64
     7
 65
   257
 75
     1
175
     1
 42
1.0
 92
        0
 66
   257
 43
1.0
 76
     1
 77
     6
 78
     2
 67
     7
 79
     5
170
     0
171
     0
290
     0
174
     0
 93
        1
 44
0.0
173
     0
291
     0
 45
0.0
1001
ACAD
1000
AcDbSavedByObjectVersion
1070
     0
  0
VISUALSTYLE
  5
185
102
{ACAD_XDICTIONARY
360
5F7
102
}
102
{ACAD_REACTORS
330
180
102
}
330
180
100
AcDbVisualStyle
  2
Basic
 70
     7
 71
     1
 72
     0
 73
     1
 90
        0
 40
-0.6
 41
-30.0
 62
     5
 63
     7
 74
     0
 91
        4
 64
     7
 65
   257
 75
     1
175
     1
 42
1.0
 92
        8
 66
     7
 43
1.0
 76
     1
 77
     6
 78
     2
 67
     7
 79
     5
170
     0
171
     0
290
     0
174
     0
 93
        1
 44
0.0
173
     0
291
     1
 45
0.0
1001
ACAD
1000
AcDbSavedByObjectVersion
1070
     0
  0
VISUALSTYLE
  5
18C
102
{ACAD_XDICTIONARY
360
605
102
}
102
{ACAD_REACTORS
330
180
102
}
330
180
100
AcDbVisualStyle
  2
Brighten
 70
    12
 71
     2
 72
     2
 73
     0
 90
        0
 40
-0.6
 41
-30.0
 62
     5
 63
     7
 74
     1
 91
        4
 64
     7
 65
   257
 75
     1
175
     1
 42
1.0
 92
        8
 66
     7
 43
1.0
 76
     1
 77
     6
 78
     2
 67
     7
 79
     5
170
     0
171
     0
290
     0
174
     0
 93
        1
 44
50.0
173
     0
291
     1
 45
0.0
1001
ACAD
1000
AcDbSavedByObjectVersion
1070
     0
  0
VISUALSTYLE
  5
190
102
{ACAD_XDICTIONARY
360
60D
102
}
102
{ACAD_REACTORS
330
180
102
}
330
180
100
AcDbVisualStyle
  2
ColorChange
 70
    16
 71
     2
 72
     2
 73
     3
 90
        0
 40
-0.6
 41
-30.0
 62
     5
 63
     8
 74
     1
 91
        4
 64
     7
 65
   257
 75
     1
175
     1
 42
1.0
 92
        8
 66
     8
 43
1.0
 76
     1
 77
     6
 78
     2
 67
     7
 79
     5
170
     0
171
     0
290
     0
174
     0
 93
        1
 44
0.0
173
     0
291
     1
 45
0.0
1001
ACAD
1000
AcDbSavedByObjectVersion
1070
     0
  0
VISUALSTYLE
  5
189
102
{ACAD_XDICTIONARY
360
5FF
102
}
102
{ACAD_REACTORS
330
180
102
}
330
180
100
AcDbVisualStyle
  2
Conceptual
 70
     9
 71
     3
 72
     2
 73
     0
 90
        0
 40
-0.6
 41
-30.0
 62
     5
 63
     7
 74
     2
 91
        2
 64
     7
 65
   257
 75
     1
175
     1
 42
40.0
 92
        8
 66
     7
 43
1.0
 76
     1
 77
     6
 78
     2
 67
     7
 79
     3
170
     0
171
     0
290
     0
174
     0
 93
        1
 44
0.0
173
     0
291
     0
 45
0.0
1001
ACAD
1000
AcDbSavedByObjectVersion
1070
     0
  0
VISUALSTYLE
  5
18B
102
{ACAD_XDICTIONARY
360
603
102
}
102
{ACAD_REACTORS
330
180
102
}
330
180
100
AcDbVisualStyle
  2
Dim
 70
    11
 71
     2
 72
     2
 73
     0
 90
        0
 40
-0.6
 41
-30.0
 62
     5
 63
     7
 74
     1
 91
        4
 64
     7
 65
   257
 75
     1
175
     1
 42
1.0
 92
        8
 66
     7
 43
1.0
 76
     1
 77
     6
 78
     2
 67
     7
 79
     5
170
     0
171
     0
290
     0
174
     0
 93
        1
 44
-50.0
173
     0
291
     1
 45
0.0
1001
ACAD
1000
AcDbSavedByObjectVersion
1070
     0
  0
VISUALSTYLE
  5
205
102
{ACAD_XDICTIONARY
360
621
102
}
102
{ACAD_REACTORS
330
180
102
}
330
180
100
AcDbVisualStyle
  2
EdgeColorOff
 70
    22
 71
     2
 72
     2
 73
     0
 90
        0
 40
-0.6
 41
-30.0
 62
     5
 63
     7
 74
     1
 91
        4
 64
     7
 65
   257
 75
     1
175
     1
 42
1.0
 92
        8
 66
     7
 43
1.0
 76
     1
 77
     6
 78
     2
 67
     7
 79
     5
170
     0
171
     0
290
     0
174
     0
 93
        1
 44
0.0
173
     0
291
     1
 45
0.0
1001
ACAD
1000
AcDbSavedByObjectVersion
1070
     0
  0
VISUALSTYLE
  5
18F
102
{ACAD_XDICTIONARY
360
60B
102
}
102
{ACAD_REACTORS
330
180
102
}
330
180
100
AcDbVisualStyle
  2
Facepattern
 70
    15
 71
     2
 72
     2
 73
     0
 90
        0
 40
-0.6
 41
-30.0
 62
     5
 63
     7
 74
     1
 91
        4
 64
     7
 65
   257
 75
     1
175
     1
 42
1.0
 92
        8
 66
     7
 43
1.0
 76
     1
 77
     6
 78
     2
 67
     7
 79
     5
170
     0
171
     0
290
     0
174
     0
 93
        1
 44
0.0
173
     0
291
     1
 45
0.0
1001
ACAD
1000
AcDbSavedByObjectVersion
1070
     0
  0
VISUALSTYLE
  5
181
102
{ACAD_XDICTIONARY
360
5EF
102
}
102
{ACAD_REACTORS
330
180
102
}
330
180
100
AcDbVisualStyle
  2
Flat
 70
     0
 71
     2
 72
     1
 73
     1
 90
        2
 40
-0.6
 41
30.0
 62
     5
 63
     7
 74
     0
 91
        4
 64
     7
 65
   257
 75
     1
175
     1
 42
1.0
 92
        8
 66
     7
 43
1.0
 76
     1
 77
     6
 78
     2
 67
     7
 79
     5
170
     0
171
     0
290
     0
174
     0
 93
       13
 44
0.0
173
     0
291
     1
 45
0.0
1001
ACAD
1000
AcDbSavedByObjectVersion
1070
     0
  0
VISUALSTYLE
  5
182
102
{ACAD_XDICTIONARY
360
5F1
102
}
102
{ACAD_REACTORS
330
180
102
}
330
180
100
AcDbVisualStyle
  2
FlatWithEdges
 70
     1
 71
     2
 72
     1
 73
     1
 90
        2
 40
-0.6
 41
30.0
 62
     5
 63
     7
 74
     1
 91
        4
 64
     7
 65
   257
 75
     1
175
     1
 42
1.0
 92
        0
 66
   257
 43
1.0
 76
     1
 77
     6
 78
     2
 67
     7
 79
     5
170
     0
171
     0
290
     0
174
     0
 93
       13
 44
0.0
173
     0
291
     1
 45
0.0
1001
ACAD
1000
AcDbSavedByObjectVersion
1070
     0
  0
VISUALSTYLE
  5
183
102
{ACAD_XDICTIONARY
360
5F3
102
}
102
{ACAD_REACTORS
330
180
102
}
330
180
100
AcDbVisualStyle
  2
Gouraud
 70
     2
 71
     2
 72
     2
 73
     1
 90
        2
 40
-0.6
 41
30.0
 62
     5
 63
     7
 74
     0
 91
        4
 64
     7
 65
   257
 75
     1
175
     1
 42
1.0
 92
        0
 66
     7
 43
1.0
 76
     1
 77
     6
 78
     2
 67
     7
 79
     5
170
     0
171
     0
290
     0
174
     0
 93
       13
 44
0.0
173
     0
291
     1
 45
0.0
1001
ACAD
1000
AcDbSavedByObjectVersion
1070
     0
  0
VISUALSTYLE
  5
184
102
{ACAD_XDICTIONARY
360
5F5
102
}
102
{ACAD_REACTORS
330
180
102
}
330
180
100
AcDbVisualStyle
  2
GouraudWithEdges
 70
     3
 71
     2
 72
     2
 73
     1
 90
        2
 40
-0.6
 41
30.0
 62
     5
 63
     7
 74
     1
 91
        4
 64
     7
 65
   257
 75
     1
175
     1
 42
1.0
 92
        0
 66
   257
 43
1.0
 76
     1
 77
     6
 78
     2
 67
     7
 79
     5
170
     0
171
     0
290
     0
174
     0
 93
       13
 44
0.0
173
     0
291
     1
 45
0.0
1001
ACAD
1000
AcDbSavedByObjectVersion
1070
     0
  0
VISUALSTYLE
  5
1FD
102
{ACAD_XDICTIONARY
360
611
102
}
102
{ACAD_REACTORS
330
180
102
}
330
180
100
AcDbVisualStyle
  2
Hidden
 70
     6
 71
     1
 72
     2
 73
     2
 90
        0
 40
-0.6
 41
-30.0
 62
     5
 63
     7
 74
     2
 91
        2
 64
     7
 65
   257
 75
     2
175
     1
 42
40.0
 92
        0
 66
   257
 43
1.0
 76
     1
 77
     6
 78
     2
 67
     7
 79
     3
170
     0
171
     0
290
     0
174
     0
 93
        1
 44
0.0
173
     0
291
     0
 45
0.0
1001
ACAD
1000
AcDbSavedByObjectVersion
1070
     0
  0
VISUALSTYLE
  5
203
102
{ACAD_XDICTIONARY
360
61D
102
}
102
{ACAD_REACTORS
330
180
102
}
330
180
100
AcDbVisualStyle
  2
JitterOff
 70
    20
 71
     2
 72
     2
 73
     0
 90
        0
 40
-0.6
 41
-30.0
 62
     5
 63
     7
 74
     1
 91
        4
 64
     7
 65
   257
 75
     1
175
     1
 42
1.0
 92
       10
 66
     7
 43
1.0
 76
     1
 77
     6
 78
     2
 67
     7
 79
     5
170
     0
171
     0
290
     0
174
     0
 93
        1
 44
0.0
173
     0
291
     1
 45
0.0
1001
ACAD
1000
AcDbSavedByObjectVersion
1070
     0
  0
VISUALSTYLE
  5
18E
102
{ACAD_XDICTIONARY
360
609
102
}
102
{ACAD_REACTORS
330
180
102
}
330
180
100
AcDbVisualStyle
  2
Linepattern
 70
    14
 71
     2
 72
     2
 73
     0
 90
        0
 40
-0.6
 41
-30.0
 62
     5
 63
     7
 74
     1
 91
        4
 64
     7
 65
   257
 75
     7
175
     7
 42
1.0
 92
        8
 66
     7
 43
1.0
 76
     1
 77
     6
 78
     2
 67
     7
 79
     5
170
     0
171
     0
290
     0
174
     0
 93
        1
 44
0.0
173
     0
291
     1
 45
0.0
1001
ACAD
1000
AcDbSavedByObjectVersion
1070
     0
  0
VISUALSTYLE
  5
204
102
{ACAD_XDICTIONARY
360
61F
102
}
102
{ACAD_REACTORS
330
180
102
}
330
180
100
AcDbVisualStyle
  2
OverhangOff
 70
    21
 71
     2
 72
     2
 73
     0
 90
        0
 40
-0.6
 41
-30.0
 62
     5
 63
     7
 74
     1
 91
        4
 64
     7
 65
   257
 75
     1
175
     1
 42
1.0
 92
        9
 66
     7
 43
1.0
 76
     1
 77
     6
 78
     2
 67
     7
 79
     5
170
     0
171
     0
290
     0
174
     0
 93
        1
 44
0.0
173
     0
291
     1
 45
0.0
1001
ACAD
1000
AcDbSavedByObjectVersion
1070
     0
  0
VISUALSTYLE
  5
18A
102
{ACAD_XDICTIONARY
360
601
102
}
102
{ACAD_REACTORS
330
180
102
}
330
180
100
AcDbVisualStyle
  2
Realistic
 70
     8
 71
     2
 72
     2
 73
     0
 90
        0
 40
-0.6
 41
-30.0
 62
     5
 63
     7
 74
     1
 91
        0
 64
     7
 65
   257
 75
     1
175
     1
 42
1.0
 92
        8
 66
     8
 43
1.0
 76
     1
 77
     6
 78
     2
 67
     7
 79
     5
170
     0
171
     0
290
     0
174
     0
 93
       13
 44
0.0
173
     0
291
     0
 45
0.0
1001
ACAD
1000
AcDbSavedByObjectVersion
1070
     0
  0
VISUALSTYLE
  5
202
102
{ACAD_XDICTIONARY
360
61B
102
}
102
{ACAD_REACTORS
330
180
102
}
330
180
100
AcDbVisualStyle
  2
Shaded
 70
    27
 71
     2
 72
     2
 73
     1
 90
        2
 40
-0.6
 41
30.0
 62
     5
 63
     7
 74
     0
 91
        4
 64
     7
 65
   257
 75
     1
175
     1
 42
1.0
 92
        8
 66
   257
 43
1.0
 76
     1
 77
     6
 78
     2
 67
     8
 79
     3
170
     0
171
     0
290
     0
174
     0
 93
        5
 44
0.0
173
     0
291
     0
 45
0.0
1001
ACAD
1000
AcDbSavedByObjectVersion
1070
     0
  0
VISUALSTYLE
  5
201
102
{ACAD_XDICTIONARY
360
619
102
}
102
{ACAD_REACTORS
330
180
102
}
330
180
100
AcDbVisualStyle
  2
Shaded with edges
 70
    26
 71
     2
 72
     2
 73
     1
 90
        2
 40
-0.6
 41
30.0
 62
     5
 63
     7
 74
     1
 91
       10
 64
     7
 65
   257
 75
     2
175
     1
 42
1.0
 92
        8
 66
   257
 43
1.0
 76
     1
 77
     6
 78
     2
 67
     7
 79
     3
170
     0
171
     0
290
     0
174
     0
 93
        5
 44
0.0
173
     0
291
     0
 45
0.0
1001
ACAD
1000
AcDbSavedByObjectVersion
1070
     0
  0
VISUALSTYLE
  5
1FE
102
{ACAD_XDICTIONARY
360
613
102
}
102
{ACAD_REACTORS
330
180
102
}
330
180
100
AcDbVisualStyle
  2
Shades of Gray
 70
    23
 71
     2
 72
     2
 73
     3
 90
        0
 40
-0.6
 41
-30.0
 62
     5
 63
     7
 74
     2
 91
        2
 64
     7
 65
     7
 75
     1
175
     1
 42
40.0
 92
        8
 66
     7
 43
1.0
 76
     1
 77
     6
 78
     2
 67
     7
 79
     3
170
     0
171
     0
290
     0
174
     0
 93
        1
 44
0.0
173
     0
291
     0
 45
0.0
1001
ACAD
1000
AcDbSavedByObjectVersion
1070
     0
  0
VISUALSTYLE
  5
1FF
102
{ACAD_XDICTIONARY
360
615
102
}
102
{ACAD_REACTORS
330
180
102
}
330
180
100
AcDbVisualStyle
  2
Sketchy
 70
    24
 71
     1
 72
     2
 73
     2
 90
        0
 40
-0.6
 41
-30.0
 62
     5
 63
     7
 74
     2
 91
        2
 64
     7
 65
     7
 75
     1
175
     1
 42
40.0
 92
       11
 66
     7
 43
1.0
 76
     1
 77
     6
 78
     2
 67
     7
 79
     6
170
     0
171
     0
290
     0
174
     0
 93
        1
 44
0.0
173
     0
291
     0
 45
0.0
1001
ACAD
1000
AcDbSavedByObjectVersion
1070
     0
  0
VISUALSTYLE
  5
18D
102
{ACAD_XDICTIONARY
360
607
102
}
102
{ACAD_REACTORS
330
180
102
}
330
180
100
AcDbVisualStyle
  2
Thicken
 70
    13
 71
     2
 72
     2
 73
     0
 90
        0
 40
-0.6
 41
-30.0
 62
     5
 63
     7
 74
     1
 91
        4
 64
     7
 65
   257
 75
     1
175
     1
 42
1.0
 92
       12
 66
     7
 43
1.0
 76
     1
 77
     6
 78
     2
 67
     7
 79
     5
170
     0
171
     0
290
     0
174
     0
 93
        1
 44
0.0
173
     0
291
     1
 45
0.0
1001
ACAD
1000
AcDbSavedByObjectVersion
1070
     0
  0
VISUALSTYLE
  5
1FC
102
{ACAD_XDICTIONARY
360
60F
102
}
102
{ACAD_REACTORS
330
180
102
}
330
180
100
AcDbVisualStyle
  2
Wireframe
 70
     5
 71
     0
 72
     2
 73
     0
 90
        0
 40
-0.6
 41
-30.0
 62
     5
 63
     7
 74
     1
 91
        4
 64
     7
 65
   257
 75
     1
175
     1
 42
1.0
 92
        0
 66
   257
 43
1.0
 76
     1
 77
     6
 78
     2
 67
     7
 79
     3
170
     0
171
     0
290
     0
174
     0
 93
        1
 44
0.0
173
     0
291
     0
 45
0.0
1001
ACAD
1000
AcDbSavedByObjectVersion
1070
     0
  0
VISUALSTYLE
  5
200
102
{ACAD_XDICTIONARY
360
617
102
}
102
{ACAD_REACTORS
330
180
102
}
330
180
100
AcDbVisualStyle
  2
X-Ray
 70
    25
 71
     2
 72
     2
 73
     1
 90
        1
 40
0.5
 41
-30.0
 62
     5
 63
     7
 74
     1
 91
        0
 64
     7
 65
   257
 75
     1
175
     1
 42
1.0
 92
        8
 66
     7
 43
1.0
 76
     1
 77
     6
 78
     2
 67
     7
 79
     3
170
     0
171
     0
290
     0
174
     0
 93
       13
 44
0.0
173
     0
291
     0
 45
0.0
1001
ACAD
1000
AcDbSavedByObjectVersion
1070
     0
  0
DICTIONARYVAR
  5
1E5
102
{ACAD_REACTORS
330
15F
102
}
330
15F
100
DictionaryVariables
280
     0
  1
1:1
  0
DICTIONARYVAR
  5
1E3
102
{ACAD_REACTORS
330
15F
102
}
330
15F
100
DictionaryVariables
280
     0
  1
STANDARD
  0
DICTIONARYVAR
  5
160
102
{ACAD_REACTORS
330
15F
102
}
330
15F
100
DictionaryVariables
280
     0
  1
STANDARD
  0
DICTIONARYVAR
  5
25C
102
{ACAD_REACTORS
330
15F
102
}
330
15F
100
DictionaryVariables
280
     0
  1
1
  0
DICTIONARYVAR
  5
25A
102
{ACAD_REACTORS
330
15F
102
}
330
15F
100
DictionaryVariables
280
     0
  1
0
  0
DICTIONARYVAR
  5
1E6
102
{ACAD_REACTORS
330
15F
102
}
330
15F
100
DictionaryVariables
280
     0
  1
0
  0
DICTIONARYVAR
  5
1E4
102
{ACAD_REACTORS
330
15F
102
}
330
15F
100
DictionaryVariables
280
     0
  1
0
  0
DICTIONARYVAR
  5
25D
102
{ACAD_REACTORS
330
15F
102
}
330
15F
100
DictionaryVariables
280
     0
  1
1
  0
DICTIONARYVAR
  5
259
102
{ACAD_REACTORS
330
15F
102
}
330
15F
100
DictionaryVariables
280
     0
  1
127
  0
DICTIONARYVAR
  5
25B
102
{ACAD_REACTORS
330
15F
102
}
330
15F
100
DictionaryVariables
280
     0
  1
0
  0
DICTIONARY
  5
5E5
330
1E
100
AcDbDictionary
280
     1
281
     1
  3
ACAD_XREC_ROUNDTRIP
360
5E6
  0
DICTIONARY
  5
5E9
330
26
100
AcDbDictionary
280
     1
281
     1
  3
ACAD_XREC_ROUNDTRIP
360
5EA
  0
DICTIONARY
  5
5E7
330
22
100
AcDbDictionary
280
     1
281
     1
  3
ACAD_XREC_ROUNDTRIP
360
5E8
  0
DICTIONARY
  5
171
330
170
100
AcDbDictionary
280
     1
281
     1
  3
ACAD_XREC_ROUNDTRIP
360
5ED
  3
BUMPTILE
360
173
  3
DIFFUSETILE
360
172
  3
OPACITYTILE
360
176
  3
REFLECTIONTILE
360
175
  3
REFRACTIONTILE
360
177
  3
SPECULARTILE
360
174
  0
DICTIONARY
  5
169
330
168
100
AcDbDictionary
280
     1
281
     1
  3
ACAD_XREC_ROUNDTRIP
360
5EC
  3
BUMPTILE
360
16B
  3
DIFFUSETILE
360
16A
  3
OPACITYTILE
360
16E
  3
REFLECTIONTILE
360
16D
  3
REFRACTIONTILE
360
16F
  3
SPECULARTILE
360
16C
  0
DICTIONARY
  5
179
330
178
100
AcDbDictionary
280
     1
281
     1
  3
ACAD_XREC_ROUNDTRIP
360
5EE
  3
BUMPTILE
360
17B
  3
DIFFUSETILE
360
17A
  3
OPACITYTILE
360
17E
  3
REFLECTIONTILE
360
17D
  3
REFRACTIONTILE
360
17F
  3
SPECULARTILE
360
17C
  0
DICTIONARY
  5
5DE
330
1B4
100
AcDbDictionary
280
     1
281
     1
  3
ACAD_XREC_ROUNDTRIP
360
5DF
  0
DICTIONARY
  5
1E0
330
B7
100
AcDbDictionary
280
     1
281
     1
  3
ACAD_ROUNDTRIP_2008_TABLESTYLE_CELLSTYLEMAP
360
5DD
  3
ACAD_XREC_ROUNDTRIP
360
5EB
  0
DICTIONARY
  5
5F9
330
186
100
AcDbDictionary
280
     1
281
     1
  3
ACAD_XREC_ROUNDTRIP
360
5FA
  0
DICTIONARY
  5
5FD
330
188
100
AcDbDictionary
280
     1
281
     1
  3
ACAD_XREC_ROUNDTRIP
360
5FE
  0
DICTIONARY
  5
5FB
330
187
100
AcDbDictionary
280
     1
281
     1
  3
ACAD_XREC_ROUNDTRIP
360
5FC
  0
DICTIONARY
  5
5F7
330
185
100
AcDbDictionary
280
     1
281
     1
  3
ACAD_XREC_ROUNDTRIP
360
5F8
  0
DICTIONARY
  5
605
330
18C
100
AcDbDictionary
280
     1
281
     1
  3
ACAD_XREC_ROUNDTRIP
360
606
  0
DICTIONARY
  5
60D
330
190
100
AcDbDictionary
280
     1
281
     1
  3
ACAD_XREC_ROUNDTRIP
360
60E
  0
DICTIONARY
  5
5FF
330
189
100
AcDbDictionary
280
     1
281
     1
  3
ACAD_XREC_ROUNDTRIP
360
600
  0
DICTIONARY
  5
603
330
18B
100
AcDbDictionary
280
     1
281
     1
  3
ACAD_XREC_ROUNDTRIP
360
604
  0
DICTIONARY
  5
621
330
205
100
AcDbDictionary
280
     1
281
     1
  3
ACAD_XREC_ROUNDTRIP
360
622
  0
DICTIONARY
  5
60B
330
18F
100
AcDbDictionary
280
     1
281
     1
  3
ACAD_XREC_ROUNDTRIP
360
60C
  0
DICTIONARY
  5
5EF
330
181
100
AcDbDictionary
280
     1
281
     1
  3
ACAD_XREC_ROUNDTRIP
360
5F0
  0
DICTIONARY
  5
5F1
330
182
100
AcDbDictionary
280
     1
281
     1
  3
ACAD_XREC_ROUNDTRIP
360
5F2
  0
DICTIONARY
  5
5F3
330
183
100
AcDbDictionary
280
     1
281
     1
  3
ACAD_XREC_ROUNDTRIP
360
5F4
  0
DICTIONARY
  5
5F5
330
184
100
AcDbDictionary
280
     1
281
     1
  3
ACAD_XREC_ROUNDTRIP
360
5F6
  0
DICTIONARY
  5
611
330
1FD
100
AcDbDictionary
280
     1
281
     1
  3
ACAD_XREC_ROUNDTRIP
360
612
  0
DICTIONARY
  5
61D
330
203
100
AcDbDictionary
280
     1
281
     1
  3
ACAD_XREC_ROUNDTRIP
360
61E
  0
DICTIONARY
  5
609
330
18E
100
AcDbDictionary
280
     1
281
     1
  3
ACAD_XREC_ROUNDTRIP
360
60A
  0
DICTIONARY
  5
61F
330
204
100
AcDbDictionary
280
     1
281
     1
  3
ACAD_XREC_ROUNDTRIP
360
620
  0
DICTIONARY
  5
601
330
18A
100
AcDbDictionary
280
     1
281
     1
  3
ACAD_XREC_ROUNDTRIP
360
602
  0
DICTIONARY
  5
61B
330
202
100
AcDbDictionary
280
     1
281
     1
  3
ACAD_XREC_ROUNDTRIP
360
61C
  0
DICTIONARY
  5
619
330
201
100
AcDbDictionary
280
     1
281
     1
  3
ACAD_XREC_ROUNDTRIP
360
61A
  0
DICTIONARY
  5
613
330
1FE
100
AcDbDictionary
280
     1
281
     1
  3
ACAD_XREC_ROUNDTRIP
360
614
  0
DICTIONARY
  5
615
330
1FF
100
AcDbDictionary
280
     1
281
     1
  3
ACAD_XREC_ROUNDTRIP
360
616
  0
DICTIONARY
  5
607
330
18D
100
AcDbDictionary
280
     1
281
     1
  3
ACAD_XREC_ROUNDTRIP
360
608
  0
DICTIONARY
  5
60F
330
1FC
100
AcDbDictionary
280
     1
281
     1
  3
ACAD_XREC_ROUNDTRIP
360
610
  0
DICTIONARY
  5
617
330
200
100
AcDbDictionary
280
     1
281
     1
  3
ACAD_XREC_ROUNDTRIP
360
618
  0
XRECORD
  5
5E6
102
{ACAD_REACTORS
330
5E5
102
}
330
5E5
100
AcDbXrecord
280
     1
102
SHADEPLOT
 70
     0
102
SHADEPLOTRESLEVEL
 70
     2
102
SHADEPLOTCUSTOMDPI
 70
   300
  0
XRECORD
  5
5EA
102
{ACAD_REACTORS
330
5E9
102
}
330
5E9
100
AcDbXrecord
280
     1
102
SHADEPLOT
 70
     0
102
SHADEPLOTRESLEVEL
 70
     2
102
SHADEPLOTCUSTOMDPI
 70
   300
  0
XRECORD
  5
5E8
102
{ACAD_REACTORS
330
5E7
102
}
330
5E7
100
AcDbXrecord
280
     1
102
SHADEPLOT
 70
     0
102
SHADEPLOTRESLEVEL
 70
     2
102
SHADEPLOTCUSTOMDPI
 70
   300
  0
XRECORD
  5
5ED
102
{ACAD_REACTORS
330
171
102
}
330
171
100
AcDbXrecord
280
     1
102
MATERIAL
148
0.0
149
0.0
149
0.0
 93
        0
 94
      127
282
     0
 72
     0
 77
     0
171
     0
175
     0
179
     0
273
     0
  0
XRECORD
  5
173
102
{ACAD_REACTORS
330
171
102
}
330
171
100
AcDbXrecord
280
     1
270
     1
271
     1
  0
XRECORD
  5
172
102
{ACAD_REACTORS
330
171
102
}
330
171
100
AcDbXrecord
280
     1
270
     1
271
     1
  0
XRECORD
  5
176
102
{ACAD_REACTORS
330
171
102
}
330
171
100
AcDbXrecord
280
     1
270
     1
271
     1
  0
XRECORD
  5
175
102
{ACAD_REACTORS
330
171
102
}
330
171
100
AcDbXrecord
280
     1
270
     1
271
     1
  0
XRECORD
  5
177
102
{ACAD_REACTORS
330
171
102
}
330
171
100
AcDbXrecord
280
     1
270
     1
271
     1
  0
XRECORD
  5
174
102
{ACAD_REACTORS
330
171
102
}
330
171
100
AcDbXrecord
280
     1
270
     1
271
     1
  0
XRECORD
  5
5EC
102
{ACAD_REACTORS
330
169
102
}
330
169
100
AcDbXrecord
280
     1
102
MATERIAL
148
0.0
149
0.0
149
0.0
 93
        0
 94
      127
282
     0
 72
     0
 77
     0
171
     0
175
     0
179
     0
273
     0
  0
XRECORD
  5
16B
102
{ACAD_REACTORS
330
169
102
}
330
169
100
AcDbXrecord
280
     1
270
     1
271
     1
  0
XRECORD
  5
16A
102
{ACAD_REACTORS
330
169
102
}
330
169
100
AcDbXrecord
280
     1
270
     1
271
     1
  0
XRECORD
  5
16E
102
{ACAD_REACTORS
330
169
102
}
330
169
100
AcDbXrecord
280
     1
270
     1
271
     1
  0
XRECORD
  5
16D
102
{ACAD_REACTORS
330
169
102
}
330
169
100
AcDbXrecord
280
     1
270
     1
271
     1
  0
XRECORD
  5
16F
102
{ACAD_REACTORS
330
169
102
}
330
169
100
AcDbXrecord
280
     1
270
     1
271
     1
  0
XRECORD
  5
16C
102
{ACAD_REACTORS
330
169
102
}
330
169
100
AcDbXrecord
280
     1
270
     1
271
     1
  0
XRECORD
  5
5EE
102
{ACAD_REACTORS
330
179
102
}
330
179
100
AcDbXrecord
280
     1
102
MATERIAL
148
0.0
149
0.0
149
0.0
 93
        0
 94
      127
282
     0
 72
     0
 77
     0
171
     0
175
     0
179
     0
273
     0
  0
XRECORD
  5
17B
102
{ACAD_REACTORS
330
179
102
}
330
179
100
AcDbXrecord
280
     1
270
     1
271
     1
  0
XRECORD
  5
17A
102
{ACAD_REACTORS
330
179
102
}
330
179
100
AcDbXrecord
280
     1
270
     1
271
     1
  0
XRECORD
  5
17E
102
{ACAD_REACTORS
330
179
102
}
330
179
100
AcDbXrecord
280
     1
270
     1
271
     1
  0
XRECORD
  5
17D
102
{ACAD_REACTORS
330
179
102
}
330
179
100
AcDbXrecord
280
     1
270
     1
271
     1
  0
XRECORD
  5
17F
102
{ACAD_REACTORS
330
179
102
}
330
179
100
AcDbXrecord
280
     1
270
     1
271
     1
  0
XRECORD
  5
17C
102
{ACAD_REACTORS
330
179
102
}
330
179
100
AcDbXrecord
280
     1
270
     1
271
     1
  0
XRECORD
  5
5DF
102
{ACAD_REACTORS
330
5DE
102
}
330
5DE
100
AcDbXrecord
280
     1
102
ACAD_ROUNDTRIP_2012_MLEADER_STYLE
298
     1
  0
CELLSTYLEMAP
  5
5DD
102
{ACAD_REACTORS
330
1E0
102
}
330
1E0
100
AcDbCellStyleMap
 90
        3
300
CELLSTYLE
  1
TABLEFORMAT_BEGIN
 90
        5
170
     1
 91
        0
 92
    32768
 62
   257
 93
        1
300
CONTENTFORMAT
  1
CONTENTFORMAT_BEGIN
 90
        0
 91
        0
 92
        4
 93
        0
300

 40
0.0
140
1.0
 94
        5
 62
     0
340
11
144
0.25
309
CONTENTFORMAT_END
171
     0
 94
        6
 95
        1
302
GRIDFORMAT
  1
GRIDFORMAT_BEGIN
 90
        0
 91
        1
 62
     0
 92
       -2
340
0
 93
        0
 40
0.045
309
GRIDFORMAT_END
 95
        2
302
GRIDFORMAT
  1
GRIDFORMAT_BEGIN
 90
        0
 91
        1
 62
     0
 92
       -2
340
0
 93
        0
 40
0.045
309
GRIDFORMAT_END
 95
        4
302
GRIDFORMAT
  1
GRIDFORMAT_BEGIN
 90
        0
 91
        1
 62
     0
 92
       -2
340
0
 93
        0
 40
0.045
309
GRIDFORMAT_END
 95
        8
302
GRIDFORMAT
  1
GRIDFORMAT_BEGIN
 90
        0
 91
        1
 62
     0
 92
       -2
340
0
 93
        0
 40
0.045
309
GRIDFORMAT_END
 95
       16
302
GRIDFORMAT
  1
GRIDFORMAT_BEGIN
 90
        0
 91
        1
 62
     0
 92
       -2
340
0
 93
        0
 40
0.045
309
GRIDFORMAT_END
 95
       32
302
GRIDFORMAT
  1
GRIDFORMAT_BEGIN
 90
        0
 91
        1
 62
     0
 92
       -2
340
0
 93
        0
 40
0.045
309
GRIDFORMAT_END
309
TABLEFORMAT_END
  1
CELLSTYLE_BEGIN
 90
        1
 91
        1
300
_TITLE
309
CELLSTYLE_END
300
CELLSTYLE
  1
TABLEFORMAT_BEGIN
 90
        5
170
     1
 91
        0
 92
        0
 62
   257
 93
        1
300
CONTENTFORMAT
  1
CONTENTFORMAT_BEGIN
 90
        0
 91
        0
 92
        4
 93
        0
300

 40
0.0
140
1.0
 94
        5
 62
     0
340
11
144
0.18
309
CONTENTFORMAT_END
171
     0
 94
        6
 95
        1
302
GRIDFORMAT
  1
GRIDFORMAT_BEGIN
 90
        0
 91
        1
 62
     0
 92
       -2
340
0
 93
        0
 40
0.045
309
GRIDFORMAT_END
 95
        2
302
GRIDFORMAT
  1
GRIDFORMAT_BEGIN
 90
        0
 91
        1
 62
     0
 92
       -2
340
0
 93
        0
 40
0.045
309
GRIDFORMAT_END
 95
        4
302
GRIDFORMAT
  1
GRIDFORMAT_BEGIN
 90
        0
 91
        1
 62
     0
 92
       -2
340
0
 93
        0
 40
0.045
309
GRIDFORMAT_END
 95
        8
302
GRIDFORMAT
  1
GRIDFORMAT_BEGIN
 90
        0
 91
        1
 62
     0
 92
       -2
340
0
 93
        0
 40
0.045
309
GRIDFORMAT_END
 95
       16
302
GRIDFORMAT
  1
GRIDFORMAT_BEGIN
 90
        0
 91
        1
 62
     0
 92
       -2
340
0
 93
        0
 40
0.045
309
GRIDFORMAT_END
 95
       32
302
GRIDFORMAT
  1
GRIDFORMAT_BEGIN
 90
        0
 91
        1
 62
     0
 92
       -2
340
0
 93
        0
 40
0.045
309
GRIDFORMAT_END
309
TABLEFORMAT_END
  1
CELLSTYLE_BEGIN
 90
        2
 91
        1
300
_HEADER
309
CELLSTYLE_END
300
CELLSTYLE
  1
TABLEFORMAT_BEGIN
 90
        5
170
     1
 91
        0
 92
        0
 62
   257
 93
        1
300
CONTENTFORMAT
  1
CONTENTFORMAT_BEGIN
 90
        0
 91
        0
 92
        4
 93
        0
300

 40
0.0
140
1.0
 94
        2
 62
     0
340
11
144
0.18
309
CONTENTFORMAT_END
171
     0
 94
        6
 95
        1
302
GRIDFORMAT
  1
GRIDFORMAT_BEGIN
 90
        0
 91
        1
 62
     0
 92
       -2
340
0
 93
        0
 40
0.045
309
GRIDFORMAT_END
 95
        2
302
GRIDFORMAT
  1
GRIDFORMAT_BEGIN
 90
        0
 91
        1
 62
     0
 92
       -2
340
0
 93
        0
 40
0.045
309
GRIDFORMAT_END
 95
        4
302
GRIDFORMAT
  1
GRIDFORMAT_BEGIN
 90
        0
 91
        1
 62
     0
 92
       -2
340
0
 93
        0
 40
0.045
309
GRIDFORMAT_END
 95
        8
302
GRIDFORMAT
  1
GRIDFORMAT_BEGIN
 90
        0
 91
        1
 62
     0
 92
       -2
340
0
 93
        0
 40
0.045
309
GRIDFORMAT_END
 95
       16
302
GRIDFORMAT
  1
GRIDFORMAT_BEGIN
 90
        0
 91
        1
 62
     0
 92
       -2
340
0
 93
        0
 40
0.045
309
GRIDFORMAT_END
 95
       32
302
GRIDFORMAT
  1
GRIDFORMAT_BEGIN
 90
        0
 91
        1
 62
     0
 92
       -2
340
0
 93
        0
 40
0.045
309
GRIDFORMAT_END
309
TABLEFORMAT_END
  1
CELLSTYLE_BEGIN
 90
        3
 91
        2
300
_DATA
309
CELLSTYLE_END
  0
XRECORD
  5
5EB
102
{ACAD_REACTORS
330
1E0
102
}
330
1E0
100
AcDbXrecord
280
     1
102
ACAD_ROUNDTRIP_PRE2007_TABLESTYLE
 90
        4
 91
        0
  1

 92
        4
 93
        0
  2

 94
        4
 95
        0
  3

  0
XRECORD
  5
5FA
102
{ACAD_REACTORS
330
5F9
102
}
330
5F9
100
AcDbXrecord
280
     1
102
RTVSPropertyOp0
 70
     1
102
RTVSPropertyOp1
 70
     1
102
RTVSPropertyOp2
 70
     1
102
RTVSPropertyOp3
 70
     1
102
RTVSPropertyOp4
 70
     1
102
RTVSPropertyOp5
 70
     1
102
RTVSPropertyOp6
 70
     1
102
RTVSPropertyOp7
 70
     1
102
RTVSPropertyOp8
 70
     1
102
RTVSPropertyOp9
 70
     1
102
RTVSPropertyOp10
 70
     1
102
RTVSPropertyOp11
 70
     1
102
RTVSPropertyOp12
 70
     1
102
RTVSPropertyOp13
 70
     1
102
RTVSPropertyOp14
 70
     1
102
RTVSPropertyOp15
 70
     1
102
RTVSPropertyOp16
 70
     1
102
RTVSPropertyOp17
 70
     1
102
RTVSPropertyOp18
 70
     1
102
RTVSPropertyOp19
 70
     1
102
RTVSPropertyOp20
 70
     1
102
RTVSPropertyOp21
 70
     1
102
RTVSPropertyOp22
 70
     1
102
RTVSPropertyOp23
 70
     1
102
RTVSPropertyOp24
 70
     1
102
RTVSPropertyOp25
 70
     1
102
RTVSPropertyOp26
 70
     1
102
RTVSPropertyOp27
 70
     1
102
RTVSPropertyOp28
 70
     1
102
RTVSPropertyOp29
 70
     1
102
RTVSPropertyOp30
 70
     1
102
RTVSPropertyOp31
 70
     1
102
RTVSPropertyOp32
 70
     1
  0
XRECORD
  5
5FE
102
{ACAD_REACTORS
330
5FD
102
}
330
5FD
100
AcDbXrecord
280
     1
102
RTVSPropertyOp0
 70
     1
102
RTVSPropertyOp1
 70
     1
102
RTVSPropertyOp2
 70
     1
102
RTVSPropertyOp3
 70
     1
102
RTVSPropertyOp4
 70
     1
102
RTVSPropertyOp5
 70
     1
102
RTVSPropertyOp6
 70
     1
102
RTVSPropertyOp7
 70
     1
102
RTVSPropertyOp8
 70
     1
102
RTVSPropertyOp9
 70
     1
102
RTVSPropertyOp10
 70
     1
102
RTVSPropertyOp11
 70
     1
102
RTVSPropertyOp12
 70
     1
102
RTVSPropertyOp13
 70
     1
102
RTVSPropertyOp14
 70
     1
102
RTVSPropertyOp15
 70
     1
102
RTVSPropertyOp16
 70
     1
102
RTVSPropertyOp17
 70
     1
102
RTVSPropertyOp18
 70
     1
102
RTVSPropertyOp19
 70
     1
102
RTVSPropertyOp20
 70
     1
102
RTVSPropertyOp21
 70
     1
102
RTVSPropertyOp22
 70
     1
102
RTVSPropertyOp23
 70
     1
102
RTVSPropertyOp24
 70
     1
102
RTVSPropertyOp25
 70
     1
102
RTVSPropertyOp26
 70
     1
102
RTVSPropertyOp27
 70
     1
102
RTVSPropertyOp28
 70
     1
102
RTVSPropertyOp29
 70
     1
102
RTVSPropertyOp30
 70
     1
102
RTVSPropertyOp31
 70
     1
102
RTVSPropertyOp32
 70
     1
  0
XRECORD
  5
5FC
102
{ACAD_REACTORS
330
5FB
102
}
330
5FB
100
AcDbXrecord
280
     1
102
RTVSPropertyOp0
 70
     1
102
RTVSPropertyOp1
 70
     1
102
RTVSPropertyOp2
 70
     1
102
RTVSPropertyOp3
 70
     1
102
RTVSPropertyOp4
 70
     1
102
RTVSPropertyOp5
 70
     1
102
RTVSPropertyOp6
 70
     1
102
RTVSPropertyOp7
 70
     1
102
RTVSPropertyOp8
 70
     1
102
RTVSPropertyOp9
 70
     1
102
RTVSPropertyOp10
 70
     1
102
RTVSPropertyOp11
 70
     1
102
RTVSPropertyOp12
 70
     1
102
RTVSPropertyOp13
 70
     1
102
RTVSPropertyOp14
 70
     1
102
RTVSPropertyOp15
 70
     1
102
RTVSPropertyOp16
 70
     1
102
RTVSPropertyOp17
 70
     1
102
RTVSPropertyOp18
 70
     1
102
RTVSPropertyOp19
 70
     1
102
RTVSPropertyOp20
 70
     1
102
RTVSPropertyOp21
 70
     1
102
RTVSPropertyOp22
 70
     1
102
RTVSPropertyOp23
 70
     1
102
RTVSPropertyOp24
 70
     1
102
RTVSPropertyOp25
 70
     1
102
RTVSPropertyOp26
 70
     1
102
RTVSPropertyOp27
 70
     1
102
RTVSPropertyOp28
 70
     1
102
RTVSPropertyOp29
 70
     1
102
RTVSPropertyOp30
 70
     1
102
RTVSPropertyOp31
 70
     1
102
RTVSPropertyOp32
 70
     1
  0
XRECORD
  5
5F8
102
{ACAD_REACTORS
330
5F7
102
}
330
5F7
100
AcDbXrecord
280
     1
102
RTVSPropertyOp0
 70
     1
102
RTVSPropertyOp1
 70
     1
102
RTVSPropertyOp2
 70
     1
102
RTVSPropertyOp3
 70
     1
102
RTVSPropertyOp4
 70
     1
102
RTVSPropertyOp5
 70
     1
102
RTVSPropertyOp6
 70
     1
102
RTVSPropertyOp7
 70
     1
102
RTVSPropertyOp8
 70
     1
102
RTVSPropertyOp9
 70
     1
102
RTVSPropertyOp10
 70
     1
102
RTVSPropertyOp11
 70
     1
102
RTVSPropertyOp12
 70
     1
102
RTVSPropertyOp13
 70
     1
102
RTVSPropertyOp14
 70
     1
102
RTVSPropertyOp15
 70
     1
102
RTVSPropertyOp16
 70
     1
102
RTVSPropertyOp17
 70
     1
102
RTVSPropertyOp18
 70
     1
102
RTVSPropertyOp19
 70
     1
102
RTVSPropertyOp20
 70
     1
102
RTVSPropertyOp21
 70
     1
102
RTVSPropertyOp22
 70
     1
102
RTVSPropertyOp23
 70
     1
102
RTVSPropertyOp24
 70
     1
102
RTVSPropertyOp25
 70
     1
102
RTVSPropertyOp26
 70
     1
102
RTVSPropertyOp27
 70
     1
102
RTVSPropertyOp28
 70
     1
102
RTVSPropertyOp29
 70
     1
102
RTVSPropertyOp30
 70
     1
102
RTVSPropertyOp31
 70
     1
102
RTVSPropertyOp32
 70
     1
  0
XRECORD
  5
606
102
{ACAD_REACTORS
330
605
102
}
330
605
100
AcDbXrecord
280
     1
102
RTVSPropertyOp0
 70
     1
102
RTVSPropertyOp1
 70
     1
102
RTVSPropertyOp2
 70
     1
102
RTVSPropertyOp3
 70
     1
102
RTVSPropertyOp4
 70
     1
102
RTVSPropertyOp5
 70
     1
102
RTVSPropertyOp6
 70
     1
102
RTVSPropertyOp7
 70
     1
102
RTVSPropertyOp8
 70
     1
102
RTVSPropertyOp9
 70
     1
102
RTVSPropertyOp10
 70
     1
102
RTVSPropertyOp11
 70
     1
102
RTVSPropertyOp12
 70
     1
102
RTVSPropertyOp13
 70
     1
102
RTVSPropertyOp14
 70
     1
102
RTVSPropertyOp15
 70
     1
102
RTVSPropertyOp16
 70
     1
102
RTVSPropertyOp17
 70
     1
102
RTVSPropertyOp18
 70
     1
102
RTVSPropertyOp19
 70
     1
102
RTVSPropertyOp20
 70
     1
102
RTVSPropertyOp21
 70
     1
102
RTVSPropertyOp22
 70
     1
102
RTVSPropertyOp23
 70
     1
102
RTVSPropertyOp24
 70
     1
102
RTVSPropertyOp25
 70
     1
102
RTVSPropertyOp26
 70
     1
102
RTVSPropertyOp27
 70
     1
102
RTVSPropertyOp28
 70
     1
102
RTVSPropertyOp29
 70
     1
102
RTVSPropertyOp30
 70
     1
102
RTVSPropertyOp31
 70
     1
102
RTVSPropertyOp32
 70
     1
  0
XRECORD
  5
60E
102
{ACAD_REACTORS
330
60D
102
}
330
60D
100
AcDbXrecord
280
     1
102
RTVSPropertyOp0
 70
     1
102
RTVSPropertyOp1
 70
     1
102
RTVSPropertyOp2
 70
     1
102
RTVSPropertyOp3
 70
     1
102
RTVSPropertyOp4
 70
     1
102
RTVSPropertyOp5
 70
     1
102
RTVSPropertyOp6
 70
     1
102
RTVSPropertyOp7
 70
     1
102
RTVSPropertyOp8
 70
     1
102
RTVSPropertyOp9
 70
     1
102
RTVSPropertyOp10
 70
     1
102
RTVSPropertyOp11
 70
     1
102
RTVSPropertyOp12
 70
     1
102
RTVSPropertyOp13
 70
     1
102
RTVSPropertyOp14
 70
     1
102
RTVSPropertyOp15
 70
     1
102
RTVSPropertyOp16
 70
     1
102
RTVSPropertyOp17
 70
     1
102
RTVSPropertyOp18
 70
     1
102
RTVSPropertyOp19
 70
     1
102
RTVSPropertyOp20
 70
     1
102
RTVSPropertyOp21
 70
     1
102
RTVSPropertyOp22
 70
     1
102
RTVSPropertyOp23
 70
     1
102
RTVSPropertyOp24
 70
     1
102
RTVSPropertyOp25
 70
     1
102
RTVSPropertyOp26
 70
     1
102
RTVSPropertyOp27
 70
     1
102
RTVSPropertyOp28
 70
     1
102
RTVSPropertyOp29
 70
     1
102
RTVSPropertyOp30
 70
     1
102
RTVSPropertyOp31
 70
     1
102
RTVSPropertyOp32
 70
     1
  0
XRECORD
  5
600
102
{ACAD_REACTORS
330
5FF
102
}
330
5FF
100
AcDbXrecord
280
     1
102
RTVSPropertyOp0
 70
     1
102
RTVSPropertyOp1
 70
     1
102
RTVSPropertyOp2
 70
     1
102
RTVSPropertyOp3
 70
     1
102
RTVSPropertyOp4
 70
     1
102
RTVSPropertyOp5
 70
     1
102
RTVSPropertyOp6
 70
     1
102
RTVSPropertyOp7
 70
     1
102
RTVSPropertyOp8
 70
     1
102
RTVSPropertyOp9
 70
     1
102
RTVSPropertyOp10
 70
     1
102
RTVSPropertyOp11
 70
     1
102
RTVSPropertyOp12
 70
     1
102
RTVSPropertyOp13
 70
     1
102
RTVSPropertyOp14
 70
     1
102
RTVSPropertyOp15
 70
     1
102
RTVSPropertyOp16
 70
     1
102
RTVSPropertyOp17
 70
     1
102
RTVSPropertyOp18
 70
     1
102
RTVSPropertyOp19
 70
     1
102
RTVSPropertyOp20
 70
     1
102
RTVSPropertyOp21
 70
     1
102
RTVSPropertyOp22
 70
     1
102
RTVSPropertyOp23
 70
     1
102
RTVSPropertyOp24
 70
     1
102
RTVSPropertyOp25
 70
     1
102
RTVSPropertyOp26
 70
     1
102
RTVSPropertyOp27
 70
     1
102
RTVSPropertyOp28
 70
     1
102
RTVSPropertyOp29
 70
     1
102
RTVSPropertyOp30
 70
     1
102
RTVSPropertyOp31
 70
     1
102
RTVSPropertyOp32
 70
     1
  0
XRECORD
  5
604
102
{ACAD_REACTORS
330
603
102
}
330
603
100
AcDbXrecord
280
     1
102
RTVSPropertyOp0
 70
     1
102
RTVSPropertyOp1
 70
     1
102
RTVSPropertyOp2
 70
     1
102
RTVSPropertyOp3
 70
     1
102
RTVSPropertyOp4
 70
     1
102
RTVSPropertyOp5
 70
     1
102
RTVSPropertyOp6
 70
     1
102
RTVSPropertyOp7
 70
     1
102
RTVSPropertyOp8
 70
     1
102
RTVSPropertyOp9
 70
     1
102
RTVSPropertyOp10
 70
     1
102
RTVSPropertyOp11
 70
     1
102
RTVSPropertyOp12
 70
     1
102
RTVSPropertyOp13
 70
     1
102
RTVSPropertyOp14
 70
     1
102
RTVSPropertyOp15
 70
     1
102
RTVSPropertyOp16
 70
     1
102
RTVSPropertyOp17
 70
     1
102
RTVSPropertyOp18
 70
     1
102
RTVSPropertyOp19
 70
     1
102
RTVSPropertyOp20
 70
     1
102
RTVSPropertyOp21
 70
     1
102
RTVSPropertyOp22
 70
     1
102
RTVSPropertyOp23
 70
     1
102
RTVSPropertyOp24
 70
     1
102
RTVSPropertyOp25
 70
     1
102
RTVSPropertyOp26
 70
     1
102
RTVSPropertyOp27
 70
     1
102
RTVSPropertyOp28
 70
     1
102
RTVSPropertyOp29
 70
     1
102
RTVSPropertyOp30
 70
     1
102
RTVSPropertyOp31
 70
     1
102
RTVSPropertyOp32
 70
     1
  0
XRECORD
  5
622
102
{ACAD_REACTORS
330
621
102
}
330
621
100
AcDbXrecord
280
     1
102
RTVSPropertyOp0
 70
     0
102
RTVSPropertyOp1
 70
     0
102
RTVSPropertyOp2
 70
     0
102
RTVSPropertyOp3
 70
     0
102
RTVSPropertyOp4
 70
     0
102
RTVSPropertyOp5
 70
     0
102
RTVSPropertyOp6
 70
     0
102
RTVSPropertyOp7
 70
     0
102
RTVSPropertyOp8
 70
     0
102
RTVSPropertyOp9
 70
     0
102
RTVSPropertyOp10
 70
     0
102
RTVSPropertyOp11
 70
     0
102
RTVSPropertyOp12
 70
     0
102
RTVSPropertyOp13
 70
     0
102
RTVSPropertyOp14
 70
     2
102
RTVSPropertyOp15
 70
     0
102
RTVSPropertyOp16
 70
     0
102
RTVSPropertyOp17
 70
     0
102
RTVSPropertyOp18
 70
     0
102
RTVSPropertyOp19
 70
     0
102
RTVSPropertyOp20
 70
     0
102
RTVSPropertyOp21
 70
     0
102
RTVSPropertyOp22
 70
     0
102
RTVSPropertyOp23
 70
     0
102
RTVSPropertyOp24
 70
     0
102
RTVSPropertyOp25
 70
     0
102
RTVSPropertyOp26
 70
     0
102
RTVSPropertyOp27
 70
     0
102
RTVSPropertyOp28
 70
     0
102
RTVSPropertyOp29
 70
     0
102
RTVSPropertyOp30
 70
     0
102
RTVSPropertyOp31
 70
     0
102
RTVSPropertyOp32
 70
     0
  0
XRECORD
  5
60C
102
{ACAD_REACTORS
330
60B
102
}
330
60B
100
AcDbXrecord
280
     1
102
RTVSPropertyOp0
 70
     1
102
RTVSPropertyOp1
 70
     1
102
RTVSPropertyOp2
 70
     1
102
RTVSPropertyOp3
 70
     1
102
RTVSPropertyOp4
 70
     1
102
RTVSPropertyOp5
 70
     1
102
RTVSPropertyOp6
 70
     1
102
RTVSPropertyOp7
 70
     1
102
RTVSPropertyOp8
 70
     1
102
RTVSPropertyOp9
 70
     1
102
RTVSPropertyOp10
 70
     1
102
RTVSPropertyOp11
 70
     1
102
RTVSPropertyOp12
 70
     1
102
RTVSPropertyOp13
 70
     1
102
RTVSPropertyOp14
 70
     1
102
RTVSPropertyOp15
 70
     1
102
RTVSPropertyOp16
 70
     1
102
RTVSPropertyOp17
 70
     1
102
RTVSPropertyOp18
 70
     1
102
RTVSPropertyOp19
 70
     1
102
RTVSPropertyOp20
 70
     1
102
RTVSPropertyOp21
 70
     1
102
RTVSPropertyOp22
 70
     1
102
RTVSPropertyOp23
 70
     1
102
RTVSPropertyOp24
 70
     1
102
RTVSPropertyOp25
 70
     1
102
RTVSPropertyOp26
 70
     1
102
RTVSPropertyOp27
 70
     1
102
RTVSPropertyOp28
 70
     1
102
RTVSPropertyOp29
 70
     1
102
RTVSPropertyOp30
 70
     1
102
RTVSPropertyOp31
 70
     1
102
RTVSPropertyOp32
 70
     1
  0
XRECORD
  5
5F0
102
{ACAD_REACTORS
330
5EF
102
}
330
5EF
100
AcDbXrecord
280
     1
102
RTVSPropertyOp0
 70
     1
102
RTVSPropertyOp1
 70
     1
102
RTVSPropertyOp2
 70
     1
102
RTVSPropertyOp3
 70
     1
102
RTVSPropertyOp4
 70
     1
102
RTVSPropertyOp5
 70
     1
102
RTVSPropertyOp6
 70
     1
102
RTVSPropertyOp7
 70
     1
102
RTVSPropertyOp8
 70
     1
102
RTVSPropertyOp9
 70
     1
102
RTVSPropertyOp10
 70
     1
102
RTVSPropertyOp11
 70
     1
102
RTVSPropertyOp12
 70
     1
102
RTVSPropertyOp13
 70
     1
102
RTVSPropertyOp14
 70
     1
102
RTVSPropertyOp15
 70
     1
102
RTVSPropertyOp16
 70
     1
102
RTVSPropertyOp17
 70
     1
102
RTVSPropertyOp18
 70
     1
102
RTVSPropertyOp19
 70
     1
102
RTVSPropertyOp20
 70
     1
102
RTVSPropertyOp21
 70
     1
102
RTVSPropertyOp22
 70
     1
102
RTVSPropertyOp23
 70
     1
102
RTVSPropertyOp24
 70
     1
102
RTVSPropertyOp25
 70
     1
102
RTVSPropertyOp26
 70
     1
102
RTVSPropertyOp27
 70
     1
102
RTVSPropertyOp28
 70
     1
102
RTVSPropertyOp29
 70
     1
102
RTVSPropertyOp30
 70
     1
102
RTVSPropertyOp31
 70
     1
102
RTVSPropertyOp32
 70
     1
  0
XRECORD
  5
5F2
102
{ACAD_REACTORS
330
5F1
102
}
330
5F1
100
AcDbXrecord
280
     1
102
RTVSPropertyOp0
 70
     1
102
RTVSPropertyOp1
 70
     1
102
RTVSPropertyOp2
 70
     1
102
RTVSPropertyOp3
 70
     1
102
RTVSPropertyOp4
 70
     1
102
RTVSPropertyOp5
 70
     1
102
RTVSPropertyOp6
 70
     1
102
RTVSPropertyOp7
 70
     1
102
RTVSPropertyOp8
 70
     1
102
RTVSPropertyOp9
 70
     1
102
RTVSPropertyOp10
 70
     1
102
RTVSPropertyOp11
 70
     1
102
RTVSPropertyOp12
 70
     1
102
RTVSPropertyOp13
 70
     1
102
RTVSPropertyOp14
 70
     1
102
RTVSPropertyOp15
 70
     1
102
RTVSPropertyOp16
 70
     1
102
RTVSPropertyOp17
 70
     1
102
RTVSPropertyOp18
 70
     1
102
RTVSPropertyOp19
 70
     1
102
RTVSPropertyOp20
 70
     1
102
RTVSPropertyOp21
 70
     1
102
RTVSPropertyOp22
 70
     1
102
RTVSPropertyOp23
 70
     1
102
RTVSPropertyOp24
 70
     1
102
RTVSPropertyOp25
 70
     1
102
RTVSPropertyOp26
 70
     1
102
RTVSPropertyOp27
 70
     1
102
RTVSPropertyOp28
 70
     1
102
RTVSPropertyOp29
 70
     1
102
RTVSPropertyOp30
 70
     1
102
RTVSPropertyOp31
 70
     1
102
RTVSPropertyOp32
 70
     1
  0
XRECORD
  5
5F4
102
{ACAD_REACTORS
330
5F3
102
}
330
5F3
100
AcDbXrecord
280
     1
102
RTVSPropertyOp0
 70
     1
102
RTVSPropertyOp1
 70
     1
102
RTVSPropertyOp2
 70
     1
102
RTVSPropertyOp3
 70
     1
102
RTVSPropertyOp4
 70
     1
102
RTVSPropertyOp5
 70
     1
102
RTVSPropertyOp6
 70
     1
102
RTVSPropertyOp7
 70
     1
102
RTVSPropertyOp8
 70
     1
102
RTVSPropertyOp9
 70
     1
102
RTVSPropertyOp10
 70
     1
102
RTVSPropertyOp11
 70
     1
102
RTVSPropertyOp12
 70
     1
102
RTVSPropertyOp13
 70
     1
102
RTVSPropertyOp14
 70
     1
102
RTVSPropertyOp15
 70
     1
102
RTVSPropertyOp16
 70
     1
102
RTVSPropertyOp17
 70
     1
102
RTVSPropertyOp18
 70
     1
102
RTVSPropertyOp19
 70
     1
102
RTVSPropertyOp20
 70
     1
102
RTVSPropertyOp21
 70
     1
102
RTVSPropertyOp22
 70
     1
102
RTVSPropertyOp23
 70
     1
102
RTVSPropertyOp24
 70
     1
102
RTVSPropertyOp25
 70
     1
102
RTVSPropertyOp26
 70
     1
102
RTVSPropertyOp27
 70
     1
102
RTVSPropertyOp28
 70
     1
102
RTVSPropertyOp29
 70
     1
102
RTVSPropertyOp30
 70
     1
102
RTVSPropertyOp31
 70
     1
102
RTVSPropertyOp32
 70
     1
  0
XRECORD
  5
5F6
102
{ACAD_REACTORS
330
5F5
102
}
330
5F5
100
AcDbXrecord
280
     1
102
RTVSPropertyOp0
 70
     1
102
RTVSPropertyOp1
 70
     1
102
RTVSPropertyOp2
 70
     1
102
RTVSPropertyOp3
 70
     1
102
RTVSPropertyOp4
 70
     1
102
RTVSPropertyOp5
 70
     1
102
RTVSPropertyOp6
 70
     1
102
RTVSPropertyOp7
 70
     1
102
RTVSPropertyOp8
 70
     1
102
RTVSPropertyOp9
 70
     1
102
RTVSPropertyOp10
 70
     1
102
RTVSPropertyOp11
 70
     1
102
RTVSPropertyOp12
 70
     1
102
RTVSPropertyOp13
 70
     1
102
RTVSPropertyOp14
 70
     1
102
RTVSPropertyOp15
 70
     1
102
RTVSPropertyOp16
 70
     1
102
RTVSPropertyOp17
 70
     1
102
RTVSPropertyOp18
 70
     1
102
RTVSPropertyOp19
 70
     1
102
RTVSPropertyOp20
 70
     1
102
RTVSPropertyOp21
 70
     1
102
RTVSPropertyOp22
 70
     1
102
RTVSPropertyOp23
 70
     1
102
RTVSPropertyOp24
 70
     1
102
RTVSPropertyOp25
 70
     1
102
RTVSPropertyOp26
 70
     1
102
RTVSPropertyOp27
 70
     1
102
RTVSPropertyOp28
 70
     1
102
RTVSPropertyOp29
 70
     1
102
RTVSPropertyOp30
 70
     1
102
RTVSPropertyOp31
 70
     1
102
RTVSPropertyOp32
 70
     1
  0
XRECORD
  5
612
102
{ACAD_REACTORS
330
611
102
}
330
611
100
AcDbXrecord
280
     1
102
RTVSPropertyOp0
 70
     1
102
RTVSPropertyOp1
 70
     1
102
RTVSPropertyOp2
 70
     1
102
RTVSPropertyOp3
 70
     1
102
RTVSPropertyOp4
 70
     1
102
RTVSPropertyOp5
 70
     1
102
RTVSPropertyOp6
 70
     1
102
RTVSPropertyOp7
 70
     1
102
RTVSPropertyOp8
 70
     1
102
RTVSPropertyOp9
 70
     1
102
RTVSPropertyOp10
 70
     1
102
RTVSPropertyOp11
 70
     1
102
RTVSPropertyOp12
 70
     1
102
RTVSPropertyOp13
 70
     1
102
RTVSPropertyOp14
 70
     1
102
RTVSPropertyOp15
 70
     1
102
RTVSPropertyOp16
 70
     1
102
RTVSPropertyOp17
 70
     1
102
RTVSPropertyOp18
 70
     1
102
RTVSPropertyOp19
 70
     1
102
RTVSPropertyOp20
 70
     1
102
RTVSPropertyOp21
 70
     1
102
RTVSPropertyOp22
 70
     1
102
RTVSPropertyOp23
 70
     1
102
RTVSPropertyOp24
 70
     1
102
RTVSPropertyOp25
 70
     1
102
RTVSPropertyOp26
 70
     1
102
RTVSPropertyOp27
 70
     1
102
RTVSPropertyOp28
 70
     1
102
RTVSPropertyOp29
 70
     1
102
RTVSPropertyOp30
 70
     1
102
RTVSPropertyOp31
 70
     1
102
RTVSPropertyOp32
 70
     1
  0
XRECORD
  5
61E
102
{ACAD_REACTORS
330
61D
102
}
330
61D
100
AcDbXrecord
280
     1
102
RTVSPropertyOp0
 70
     0
102
RTVSPropertyOp1
 70
     0
102
RTVSPropertyOp2
 70
     0
102
RTVSPropertyOp3
 70
     0
102
RTVSPropertyOp4
 70
     0
102
RTVSPropertyOp5
 70
     0
102
RTVSPropertyOp6
 70
     0
102
RTVSPropertyOp7
 70
     0
102
RTVSPropertyOp8
 70
     0
102
RTVSPropertyOp9
 70
     0
102
RTVSPropertyOp10
 70
     0
102
RTVSPropertyOp11
 70
     0
102
RTVSPropertyOp12
 70
     0
102
RTVSPropertyOp13
 70
     0
102
RTVSPropertyOp14
 70
     2
102
RTVSPropertyOp15
 70
     0
102
RTVSPropertyOp16
 70
     0
102
RTVSPropertyOp17
 70
     0
102
RTVSPropertyOp18
 70
     0
102
RTVSPropertyOp19
 70
     0
102
RTVSPropertyOp20
 70
     0
102
RTVSPropertyOp21
 70
     0
102
RTVSPropertyOp22
 70
     0
102
RTVSPropertyOp23
 70
     0
102
RTVSPropertyOp24
 70
     0
102
RTVSPropertyOp25
 70
     0
102
RTVSPropertyOp26
 70
     0
102
RTVSPropertyOp27
 70
     0
102
RTVSPropertyOp28
 70
     0
102
RTVSPropertyOp29
 70
     0
102
RTVSPropertyOp30
 70
     0
102
RTVSPropertyOp31
 70
     0
102
RTVSPropertyOp32
 70
     0
  0
XRECORD
  5
60A
102
{ACAD_REACTORS
330
609
102
}
330
609
100
AcDbXrecord
280
     1
102
RTVSPropertyOp0
 70
     1
102
RTVSPropertyOp1
 70
     1
102
RTVSPropertyOp2
 70
     1
102
RTVSPropertyOp3
 70
     1
102
RTVSPropertyOp4
 70
     1
102
RTVSPropertyOp5
 70
     1
102
RTVSPropertyOp6
 70
     1
102
RTVSPropertyOp7
 70
     1
102
RTVSPropertyOp8
 70
     1
102
RTVSPropertyOp9
 70
     1
102
RTVSPropertyOp10
 70
     1
102
RTVSPropertyOp11
 70
     1
102
RTVSPropertyOp12
 70
     1
102
RTVSPropertyOp13
 70
     1
102
RTVSPropertyOp14
 70
     1
102
RTVSPropertyOp15
 70
     1
102
RTVSPropertyOp16
 70
     1
102
RTVSPropertyOp17
 70
     1
102
RTVSPropertyOp18
 70
     1
102
RTVSPropertyOp19
 70
     1
102
RTVSPropertyOp20
 70
     1
102
RTVSPropertyOp21
 70
     1
102
RTVSPropertyOp22
 70
     1
102
RTVSPropertyOp23
 70
     1
102
RTVSPropertyOp24
 70
     1
102
RTVSPropertyOp25
 70
     1
102
RTVSPropertyOp26
 70
     1
102
RTVSPropertyOp27
 70
     1
102
RTVSPropertyOp28
 70
     1
102
RTVSPropertyOp29
 70
     1
102
RTVSPropertyOp30
 70
     1
102
RTVSPropertyOp31
 70
     1
102
RTVSPropertyOp32
 70
     1
  0
XRECORD
  5
620
102
{ACAD_REACTORS
330
61F
102
}
330
61F
100
AcDbXrecord
280
     1
102
RTVSPropertyOp0
 70
     0
102
RTVSPropertyOp1
 70
     0
102
RTVSPropertyOp2
 70
     0
102
RTVSPropertyOp3
 70
     0
102
RTVSPropertyOp4
 70
     0
102
RTVSPropertyOp5
 70
     0
102
RTVSPropertyOp6
 70
     0
102
RTVSPropertyOp7
 70
     0
102
RTVSPropertyOp8
 70
     0
102
RTVSPropertyOp9
 70
     0
102
RTVSPropertyOp10
 70
     0
102
RTVSPropertyOp11
 70
     0
102
RTVSPropertyOp12
 70
     0
102
RTVSPropertyOp13
 70
     0
102
RTVSPropertyOp14
 70
     2
102
RTVSPropertyOp15
 70
     0
102
RTVSPropertyOp16
 70
     0
102
RTVSPropertyOp17
 70
     0
102
RTVSPropertyOp18
 70
     0
102
RTVSPropertyOp19
 70
     0
102
RTVSPropertyOp20
 70
     0
102
RTVSPropertyOp21
 70
     0
102
RTVSPropertyOp22
 70
     0
102
RTVSPropertyOp23
 70
     0
102
RTVSPropertyOp24
 70
     0
102
RTVSPropertyOp25
 70
     0
102
RTVSPropertyOp26
 70
     0
102
RTVSPropertyOp27
 70
     0
102
RTVSPropertyOp28
 70
     0
102
RTVSPropertyOp29
 70
     0
102
RTVSPropertyOp30
 70
     0
102
RTVSPropertyOp31
 70
     0
102
RTVSPropertyOp32
 70
     0
  0
XRECORD
  5
602
102
{ACAD_REACTORS
330
601
102
}
330
601
100
AcDbXrecord
280
     1
102
RTVSPropertyOp0
 70
     1
102
RTVSPropertyOp1
 70
     1
102
RTVSPropertyOp2
 70
     1
102
RTVSPropertyOp3
 70
     1
102
RTVSPropertyOp4
 70
     1
102
RTVSPropertyOp5
 70
     1
102
RTVSPropertyOp6
 70
     1
102
RTVSPropertyOp7
 70
     1
102
RTVSPropertyOp8
 70
     1
102
RTVSPropertyOp9
 70
     1
102
RTVSPropertyOp10
 70
     1
102
RTVSPropertyOp11
 70
     1
102
RTVSPropertyOp12
 70
     1
102
RTVSPropertyOp13
 70
     1
102
RTVSPropertyOp14
 70
     1
102
RTVSPropertyOp15
 70
     1
102
RTVSPropertyOp16
 70
     1
102
RTVSPropertyOp17
 70
     1
102
RTVSPropertyOp18
 70
     1
102
RTVSPropertyOp19
 70
     1
102
RTVSPropertyOp20
 70
     1
102
RTVSPropertyOp21
 70
     1
102
RTVSPropertyOp22
 70
     1
102
RTVSPropertyOp23
 70
     1
102
RTVSPropertyOp24
 70
     1
102
RTVSPropertyOp25
 70
     1
102
RTVSPropertyOp26
 70
     1
102
RTVSPropertyOp27
 70
     1
102
RTVSPropertyOp28
 70
     1
102
RTVSPropertyOp29
 70
     1
102
RTVSPropertyOp30
 70
     1
102
RTVSPropertyOp31
 70
     1
102
RTVSPropertyOp32
 70
     1
  0
XRECORD
  5
61C
102
{ACAD_REACTORS
330
61B
102
}
330
61B
100
AcDbXrecord
280
     1
102
RTVSPropertyOp0
 70
     1
102
RTVSPropertyOp1
 70
     1
102
RTVSPropertyOp2
 70
     1
102
RTVSPropertyOp3
 70
     1
102
RTVSPropertyOp4
 70
     1
102
RTVSPropertyOp5
 70
     1
102
RTVSPropertyOp6
 70
     1
102
RTVSPropertyOp7
 70
     1
102
RTVSPropertyOp8
 70
     1
102
RTVSPropertyOp9
 70
     1
102
RTVSPropertyOp10
 70
     1
102
RTVSPropertyOp11
 70
     1
102
RTVSPropertyOp12
 70
     1
102
RTVSPropertyOp13
 70
     1
102
RTVSPropertyOp14
 70
     1
102
RTVSPropertyOp15
 70
     1
102
RTVSPropertyOp16
 70
     1
102
RTVSPropertyOp17
 70
     1
102
RTVSPropertyOp18
 70
     1
102
RTVSPropertyOp19
 70
     1
102
RTVSPropertyOp20
 70
     1
102
RTVSPropertyOp21
 70
     1
102
RTVSPropertyOp22
 70
     1
102
RTVSPropertyOp23
 70
     1
102
RTVSPropertyOp24
 70
     1
102
RTVSPropertyOp25
 70
     1
102
RTVSPropertyOp26
 70
     1
102
RTVSPropertyOp27
 70
     1
102
RTVSPropertyOp28
 70
     1
102
RTVSPropertyOp29
 70
     1
102
RTVSPropertyOp30
 70
     1
102
RTVSPropertyOp31
 70
     1
102
RTVSPropertyOp32
 70
     1
  0
XRECORD
  5
61A
102
{ACAD_REACTORS
330
619
102
}
330
619
100
AcDbXrecord
280
     1
102
RTVSPropertyOp0
 70
     1
102
RTVSPropertyOp1
 70
     1
102
RTVSPropertyOp2
 70
     1
102
RTVSPropertyOp3
 70
     1
102
RTVSPropertyOp4
 70
     1
102
RTVSPropertyOp5
 70
     1
102
RTVSPropertyOp6
 70
     1
102
RTVSPropertyOp7
 70
     1
102
RTVSPropertyOp8
 70
     1
102
RTVSPropertyOp9
 70
     1
102
RTVSPropertyOp10
 70
     1
102
RTVSPropertyOp11
 70
     1
102
RTVSPropertyOp12
 70
     1
102
RTVSPropertyOp13
 70
     1
102
RTVSPropertyOp14
 70
     1
102
RTVSPropertyOp15
 70
     1
102
RTVSPropertyOp16
 70
     1
102
RTVSPropertyOp17
 70
     1
102
RTVSPropertyOp18
 70
     1
102
RTVSPropertyOp19
 70
     1
102
RTVSPropertyOp20
 70
     1
102
RTVSPropertyOp21
 70
     1
102
RTVSPropertyOp22
 70
     1
102
RTVSPropertyOp23
 70
     1
102
RTVSPropertyOp24
 70
     1
102
RTVSPropertyOp25
 70
     1
102
RTVSPropertyOp26
 70
     1
102
RTVSPropertyOp27
 70
     1
102
RTVSPropertyOp28
 70
     1
102
RTVSPropertyOp29
 70
     1
102
RTVSPropertyOp30
 70
     1
102
RTVSPropertyOp31
 70
     1
102
RTVSPropertyOp32
 70
     1
  0
XRECORD
  5
614
102
{ACAD_REACTORS
330
613
102
}
330
613
100
AcDbXrecord
280
     1
102
RTVSPropertyOp0
 70
     1
102
RTVSPropertyOp1
 70
     1
102
RTVSPropertyOp2
 70
     1
102
RTVSPropertyOp3
 70
     1
102
RTVSPropertyOp4
 70
     1
102
RTVSPropertyOp5
 70
     1
102
RTVSPropertyOp6
 70
     1
102
RTVSPropertyOp7
 70
     1
102
RTVSPropertyOp8
 70
     1
102
RTVSPropertyOp9
 70
     1
102
RTVSPropertyOp10
 70
     1
102
RTVSPropertyOp11
 70
     1
102
RTVSPropertyOp12
 70
     1
102
RTVSPropertyOp13
 70
     1
102
RTVSPropertyOp14
 70
     1
102
RTVSPropertyOp15
 70
     1
102
RTVSPropertyOp16
 70
     1
102
RTVSPropertyOp17
 70
     1
102
RTVSPropertyOp18
 70
     1
102
RTVSPropertyOp19
 70
     1
102
RTVSPropertyOp20
 70
     1
102
RTVSPropertyOp21
 70
     1
102
RTVSPropertyOp22
 70
     1
102
RTVSPropertyOp23
 70
     1
102
RTVSPropertyOp24
 70
     1
102
RTVSPropertyOp25
 70
     1
102
RTVSPropertyOp26
 70
     1
102
RTVSPropertyOp27
 70
     1
102
RTVSPropertyOp28
 70
     1
102
RTVSPropertyOp29
 70
     1
102
RTVSPropertyOp30
 70
     1
102
RTVSPropertyOp31
 70
     1
102
RTVSPropertyOp32
 70
     1
  0
XRECORD
  5
616
102
{ACAD_REACTORS
330
615
102
}
330
615
100
AcDbXrecord
280
     1
102
RTVSPropertyOp0
 70
     1
102
RTVSPropertyOp1
 70
     1
102
RTVSPropertyOp2
 70
     1
102
RTVSPropertyOp3
 70
     1
102
RTVSPropertyOp4
 70
     1
102
RTVSPropertyOp5
 70
     1
102
RTVSPropertyOp6
 70
     1
102
RTVSPropertyOp7
 70
     1
102
RTVSPropertyOp8
 70
     1
102
RTVSPropertyOp9
 70
     1
102
RTVSPropertyOp10
 70
     1
102
RTVSPropertyOp11
 70
     1
102
RTVSPropertyOp12
 70
     1
102
RTVSPropertyOp13
 70
     1
102
RTVSPropertyOp14
 70
     1
102
RTVSPropertyOp15
 70
     1
102
RTVSPropertyOp16
 70
     1
102
RTVSPropertyOp17
 70
     1
102
RTVSPropertyOp18
 70
     1
102
RTVSPropertyOp19
 70
     1
102
RTVSPropertyOp20
 70
     1
102
RTVSPropertyOp21
 70
     1
102
RTVSPropertyOp22
 70
     1
102
RTVSPropertyOp23
 70
     1
102
RTVSPropertyOp24
 70
     1
102
RTVSPropertyOp25
 70
     1
102
RTVSPropertyOp26
 70
     1
102
RTVSPropertyOp27
 70
     1
102
RTVSPropertyOp28
 70
     1
102
RTVSPropertyOp29
 70
     1
102
RTVSPropertyOp30
 70
     1
102
RTVSPropertyOp31
 70
     1
102
RTVSPropertyOp32
 70
     1
  0
XRECORD
  5
608
102
{ACAD_REACTORS
330
607
102
}
330
607
100
AcDbXrecord
280
     1
102
RTVSPropertyOp0
 70
     1
102
RTVSPropertyOp1
 70
     1
102
RTVSPropertyOp2
 70
     1
102
RTVSPropertyOp3
 70
     1
102
RTVSPropertyOp4
 70
     1
102
RTVSPropertyOp5
 70
     1
102
RTVSPropertyOp6
 70
     1
102
RTVSPropertyOp7
 70
     1
102
RTVSPropertyOp8
 70
     1
102
RTVSPropertyOp9
 70
     1
102
RTVSPropertyOp10
 70
     1
102
RTVSPropertyOp11
 70
     1
102
RTVSPropertyOp12
 70
     1
102
RTVSPropertyOp13
 70
     1
102
RTVSPropertyOp14
 70
     1
102
RTVSPropertyOp15
 70
     1
102
RTVSPropertyOp16
 70
     1
102
RTVSPropertyOp17
 70
     1
102
RTVSPropertyOp18
 70
     1
102
RTVSPropertyOp19
 70
     1
102
RTVSPropertyOp20
 70
     1
102
RTVSPropertyOp21
 70
     1
102
RTVSPropertyOp22
 70
     1
102
RTVSPropertyOp23
 70
     1
102
RTVSPropertyOp24
 70
     1
102
RTVSPropertyOp25
 70
     1
102
RTVSPropertyOp26
 70
     1
102
RTVSPropertyOp27
 70
     1
102
RTVSPropertyOp28
 70
     1
102
RTVSPropertyOp29
 70
     1
102
RTVSPropertyOp30
 70
     1
102
RTVSPropertyOp31
 70
     1
102
RTVSPropertyOp32
 70
     1
  0
XRECORD
  5
610
102
{ACAD_REACTORS
330
60F
102
}
330
60F
100
AcDbXrecord
280
     1
102
RTVSPropertyOp0
 70
     1
102
RTVSPropertyOp1
 70
     1
102
RTVSPropertyOp2
 70
     1
102
RTVSPropertyOp3
 70
     1
102
RTVSPropertyOp4
 70
     1
102
RTVSPropertyOp5
 70
     1
102
RTVSPropertyOp6
 70
     1
102
RTVSPropertyOp7
 70
     1
102
RTVSPropertyOp8
 70
     1
102
RTVSPropertyOp9
 70
     1
102
RTVSPropertyOp10
 70
     1
102
RTVSPropertyOp11
 70
     1
102
RTVSPropertyOp12
 70
     1
102
RTVSPropertyOp13
 70
     1
102
RTVSPropertyOp14
 70
     1
102
RTVSPropertyOp15
 70
     1
102
RTVSPropertyOp16
 70
     1
102
RTVSPropertyOp17
 70
     1
102
RTVSPropertyOp18
 70
     1
102
RTVSPropertyOp19
 70
     1
102
RTVSPropertyOp20
 70
     1
102
RTVSPropertyOp21
 70
     1
102
RTVSPropertyOp22
 70
     1
102
RTVSPropertyOp23
 70
     1
102
RTVSPropertyOp24
 70
     1
102
RTVSPropertyOp25
 70
     1
102
RTVSPropertyOp26
 70
     1
102
RTVSPropertyOp27
 70
     1
102
RTVSPropertyOp28
 70
     1
102
RTVSPropertyOp29
 70
     1
102
RTVSPropertyOp30
 70
     1
102
RTVSPropertyOp31
 70
     1
102
RTVSPropertyOp32
 70
     1
  0
XRECORD
  5
618
102
{ACAD_REACTORS
330
617
102
}
330
617
100
AcDbXrecord
280
     1
102
RTVSPropertyOp0
 70
     1
102
RTVSPropertyOp1
 70
     1
102
RTVSPropertyOp2
 70
     1
102
RTVSPropertyOp3
 70
     1
102
RTVSPropertyOp4
 70
     1
102
RTVSPropertyOp5
 70
     1
102
RTVSPropertyOp6
 70
     1
102
RTVSPropertyOp7
 70
     1
102
RTVSPropertyOp8
 70
     1
102
RTVSPropertyOp9
 70
     1
102
RTVSPropertyOp10
 70
     1
102
RTVSPropertyOp11
 70
     1
102
RTVSPropertyOp12
 70
     1
102
RTVSPropertyOp13
 70
     1
102
RTVSPropertyOp14
 70
     1
102
RTVSPropertyOp15
 70
     1
102
RTVSPropertyOp16
 70
     1
102
RTVSPropertyOp17
 70
     1
102
RTVSPropertyOp18
 70
     1
102
RTVSPropertyOp19
 70
     1
102
RTVSPropertyOp20
 70
     1
102
RTVSPropertyOp21
 70
     1
102
RTVSPropertyOp22
 70
     1
102
RTVSPropertyOp23
 70
     1
102
RTVSPropertyOp24
 70
     1
102
RTVSPropertyOp25
 70
     1
102
RTVSPropertyOp26
 70
     1
102
RTVSPropertyOp27
 70
     1
102
RTVSPropertyOp28
 70
     1
102
RTVSPropertyOp29
 70
     1
102
RTVSPropertyOp30
 70
     1
102
RTVSPropertyOp31
 70
     1
102
RTVSPropertyOp32
 70
     1
  0
ENDSEC
  0
EOF
